Bu Sunum 0.5 Oranında Seed Edilmesi Mecburdur.
Kime Niyet Kime Kismet 2017 720p BluRay x264 AC3 TRDUB TORK

Genişletmek için Tıkla!
10-01-2018 07:04 , playdevil Tarafından Yüklendi.
Kaynaklar: 5 / İndirilen: 0 / Boyut: 1.1 GB / Tamamlandı: 48
Torrenti İndir  Torrenti Şikayet Et Torrent Tanımı Tanıtım Videosu
IMDB Puanı: 5.3 5.3/10 Kategori: Komedi | Romantik
Kategori: Yabancı Filmler > 720p
http://www.imdb.com/title/tt5176390/

Kime Niyet Kime Kismet 2017 720p BluRay x264 AC3 TRDUB TORK





AÇIKLAMA

Amy Tyler, sevgilisiyle tatil programı yapmıştır. Otel ve uçak bileti rezervasyonları ayarlanmıştır ancak çift, tatile çıkmadan önce kavga edip ayrılırlar. Tatil programını iptal etmek istemeyen Amy Tyler, yeni bir sevgili bulup tatile gitmeye karar verir. Yeni sevgilisiyle gideceği yer İstanbul'dur.



Genişlet Kod:
Format : Matroska
Format version : Version 4 / Version 2
File size : 1.10 GiB
Duration : 1 h 23 min
Overall bit rate : 1 885 kb/s
Encoded date : UTC 2018-01-10 02:41:23
Writing application : mkvmerge v8.5.1 ('Where you lead I will follow') 32bit
Writing library : libebml v1.3.3 + libmatroska v1.4.4

Video
ID : 1
Format : AVC
Format/Info : Advanced Video Codec
Format profile : High@L3.1
Format settings : CABAC / 4 Ref Frames
Format settings, CABAC : Yes
Format settings, RefFrames : 4 frames
Codec ID : V_MPEG4/ISO/AVC
Duration : 1 h 23 min
Bit rate : 1 500 kb/s
Width : 1 280 pixels
Height : 720 pixels
Display aspect ratio : 16:9
Frame rate mode : Constant
Frame rate : 23.976 (24000/1001) FPS
Color space : YUV
Chroma subsampling : 4:2:0
Bit depth : 8 bits
Scan type : Progressive
Bits/(Pixel*Frame) : 0.068
Stream size : 894 MiB (80%)
Writing library : x264 core 152 r2851 ba24899

Default : Yes
Forced : No

Audio
ID : 2
Format : AC-3
Format/Info : Audio Coding 3
Format settings, Endianness : Big
Codec ID : A_AC3
Duration : 1 h 23 min
Bit rate mode : Constant
Bit rate : 384 kb/s
Channel(s) : 2 channels
Channel positions : Front: L R
Sampling rate : 48.0 kHz
Frame rate : 31.250 FPS (1536 SPF)
Bit depth : 16 bits
Compression mode : Lossy
Stream size : 229 MiB (20%)
Language : Turkish
Service kind : Complete Main
Default : Yes
Forced : No




husen, MAXPAYNE2635, demircan67 ve diger 15 kisi bunu begendi.

Kime Niyet Kime Kismet 2017 720p BluRay x264 AC3 TRDUB TORK





AÇIKLAMA

Amy Tyler, sevgilisiyle tatil programı yapmıştır. Otel ve uçak bileti rezervasyonları ayarlanmıştır ancak çift, tatile çıkmadan önce kavga edip ayrılırlar. Tatil programını iptal etmek istemeyen Amy Tyler, yeni bir sevgili bulup tatile gitmeye karar verir. Yeni sevgilisiyle gideceği yer İstanbul'dur.



Genişlet Kod:
Format : Matroska
Format version : Version 4 / Version 2
File size : 1.10 GiB
Duration : 1 h 23 min
Overall bit rate : 1 885 kb/s
Encoded date : UTC 2018-01-10 02:41:23
Writing application : mkvmerge v8.5.1 ('Where you lead I will follow') 32bit
Writing library : libebml v1.3.3 + libmatroska v1.4.4

Video
ID : 1
Format : AVC
Format/Info : Advanced Video Codec
Format profile : High@L3.1
Format settings : CABAC / 4 Ref Frames
Format settings, CABAC : Yes
Format settings, RefFrames : 4 frames
Codec ID : V_MPEG4/ISO/AVC
Duration : 1 h 23 min
Bit rate : 1 500 kb/s
Width : 1 280 pixels
Height : 720 pixels
Display aspect ratio : 16:9
Frame rate mode : Constant
Frame rate : 23.976 (24000/1001) FPS
Color space : YUV
Chroma subsampling : 4:2:0
Bit depth : 8 bits
Scan type : Progressive
Bits/(Pixel*Frame) : 0.068
Stream size : 894 MiB (80%)
Writing library : x264 core 152 r2851 ba24899

Default : Yes
Forced : No

Audio
ID : 2
Format : AC-3
Format/Info : Audio Coding 3
Format settings, Endianness : Big
Codec ID : A_AC3
Duration : 1 h 23 min
Bit rate mode : Constant
Bit rate : 384 kb/s
Channel(s) : 2 channels
Channel positions : Front: L R
Sampling rate : 48.0 kHz
Frame rate : 31.250 FPS (1536 SPF)
Bit depth : 16 bits
Compression mode : Lossy
Stream size : 229 MiB (20%)
Language : Turkish
Service kind : Complete Main
Default : Yes
Forced : No




Henüz yorum yapılmamış.
IMDB Yenile
Non-Transferable (2017)
83 Dakika - Comedy
IMDB Puanı: 5.3 5.3/10 ( oy)
Yönetmen(ler): Brendan Bradley
Yazar(lar): Brendan Bradley
Yıldızlar: Ashley Clements | Brendan Bradley | Shanna Malcolm | See full cast & crew
Kadro: Ashley Clements | Brendan Bradley | Shanna Malcolm | Katie Wee | Christopher Nicholas Smith | Jessica Jade Andres | Cem Baza | Walker Davis | Dior Gipson | Monika Jolly
Hiçbir Şey Bulunamadı.

web counter