Bu Sunum 0.5 Oranında Seed Edilmesi Mecburdur.
Ufuk Faciasi 1997 1080p BluRay x264 DUAL TR-ENG TORK

Genişletmek için Tıkla!
10-01-2018 07:04 , playdevil Tarafından Yüklendi.
Kaynaklar: 2 / İndirilen: 0 / Boyut: 1.91 GB / Tamamlandı: 28
Torrenti İndir  Torrenti Şikayet Et Torrent Tanımı Tanıtım Videosu
IMDB Puanı: 6.7 6.7/10 Kategori: Bilim Kurgu | Gerilim | Korku
Kategori: Yabancı Filmler > 1080p
http://www.imdb.com/title/tt0119081/

Ufuk Faciasi 1997 1080p BluRay x264 DUAL TR-ENG TORK





AÇIKLAMA

Vizyon tarihi: 28 Kasım 1997 (1s 36dk)

Yönetmen: Paul W.S. Anderson

Oyuncular: Laurence Fishburne, Kathleen Quinlan, Sam Neill

Tür: Fantastik, Bilim Kurgu

Ülke: ABD, İngiltere

Event Horizon 2040 yılında uzaya araştırmalar yapmak üzere gönderilen bir uzay gemisidir. Görevi esnasında kaybolmuştur. Olayın üzerinden geçen yedi senenin ardından bilim insanları bu uzay gemisini aramak ve akıbetini kavramak üzere bir kurtarma gemisi göndermeye karar verirler. Titiz bir şekilde bir araya getirilen ekip, çıkacakları bu karanlık yolculuğun dehşetinden habersizdir. Geriye dönmek, düşündükleri kadar kolay olmayacaktır.

Resident Evil serisini yaratan ve dirilten yönetmen olarak tanınan Paul W.S. Anderson’ın Laurence Fishburne, Kathleen Quinlan ve Sam Neill gibi oyuncuları yanına alarak kotardığı bilimkurgu filminin senaryosunu Philip Eisner yazdı.



Genişlet Kod:
Format : Matroska
Format version : Version 4 / Version 2
File size : 1.91 GiB
Duration : 1 h 35 min
Overall bit rate : 2 852 kb/s
Encoded date : UTC 2018-01-10 02:54:06
Writing application : mkvmerge v8.5.1 ('Where you lead I will follow') 32bit
Writing library : libebml v1.3.3 + libmatroska v1.4.4
Attachments : TORK.png

Video
ID : 1
Format : AVC
Format/Info : Advanced Video Codec
Format profile : High@L4.1
Format settings : CABAC / 4 Ref Frames
Format settings, CABAC : Yes
Format settings, RefFrames : 4 frames
Codec ID : V_MPEG4/ISO/AVC
Duration : 1 h 35 min
Bit rate : 2 500 kb/s
Width : 1 920 pixels
Height : 816 pixels
Display aspect ratio : 2.35:1
Frame rate mode : Constant
Frame rate : 23.976 (23976/1000) FPS
Color space : YUV
Chroma subsampling : 4:2:0
Bit depth : 8 bits
Scan type : Progressive
Bits/(Pixel*Frame) : 0.067
Stream size : 1.67 GiB (88%)
Writing library : x264 core 152 r2851M ba24899

Default : Yes
Forced : No

Audio #1
ID : 2
Format : AAC
Format/Info : Advanced Audio Codec
Format profile : LC
Codec ID : A_AAC-2
Duration : 1 h 35 min
Bit rate : 128 kb/s
Channel(s) : 2 channels
Channel positions : Front: L R
Sampling rate : 44.1 kHz
Frame rate : 43.066 FPS (1024 SPF)
Compression mode : Lossy
Stream size : 87.3 MiB (4%)
Title : TOrrent tuRK
Language : Turkish
Default : Yes
Forced : No

Audio #2
ID : 3
Format : AAC
Format/Info : Advanced Audio Codec
Format profile : LC
Codec ID : A_AAC-2
Duration : 1 h 35 min
Bit rate : 224 kb/s
Channel(s) : 6 channels
Channel positions : Front: L C R, Side: L R, LFE
Sampling rate : 48.0 kHz
Frame rate : 46.875 FPS (1024 SPF)
Compression mode : Lossy
Stream size : 154 MiB (8%)
Title : TOrrent tuRK
Language : English
Default : No
Forced : No

Text
ID : 4
Format : UTF-8
Codec ID : S_TEXT/UTF8
Codec ID/Info : UTF-8 Plain Text
Duration : 1 h 29 min
Bit rate : 51 b/s
Count of elements : 919
Stream size : 33.6 KiB (0%)
Language : Turkish
Default : No
Forced : No




demircan67, Antonio0058, mahtanw ve diger 10 kisi bunu begendi.

Ufuk Faciasi 1997 1080p BluRay x264 DUAL TR-ENG TORK





AÇIKLAMA

Vizyon tarihi: 28 Kasım 1997 (1s 36dk)

Yönetmen: Paul W.S. Anderson

Oyuncular: Laurence Fishburne, Kathleen Quinlan, Sam Neill

Tür: Fantastik, Bilim Kurgu

Ülke: ABD, İngiltere

Event Horizon 2040 yılında uzaya araştırmalar yapmak üzere gönderilen bir uzay gemisidir. Görevi esnasında kaybolmuştur. Olayın üzerinden geçen yedi senenin ardından bilim insanları bu uzay gemisini aramak ve akıbetini kavramak üzere bir kurtarma gemisi göndermeye karar verirler. Titiz bir şekilde bir araya getirilen ekip, çıkacakları bu karanlık yolculuğun dehşetinden habersizdir. Geriye dönmek, düşündükleri kadar kolay olmayacaktır.

Resident Evil serisini yaratan ve dirilten yönetmen olarak tanınan Paul W.S. Anderson’ın Laurence Fishburne, Kathleen Quinlan ve Sam Neill gibi oyuncuları yanına alarak kotardığı bilimkurgu filminin senaryosunu Philip Eisner yazdı.



Genişlet Kod:
Format : Matroska
Format version : Version 4 / Version 2
File size : 1.91 GiB
Duration : 1 h 35 min
Overall bit rate : 2 852 kb/s
Encoded date : UTC 2018-01-10 02:54:06
Writing application : mkvmerge v8.5.1 ('Where you lead I will follow') 32bit
Writing library : libebml v1.3.3 + libmatroska v1.4.4
Attachments : TORK.png

Video
ID : 1
Format : AVC
Format/Info : Advanced Video Codec
Format profile : High@L4.1
Format settings : CABAC / 4 Ref Frames
Format settings, CABAC : Yes
Format settings, RefFrames : 4 frames
Codec ID : V_MPEG4/ISO/AVC
Duration : 1 h 35 min
Bit rate : 2 500 kb/s
Width : 1 920 pixels
Height : 816 pixels
Display aspect ratio : 2.35:1
Frame rate mode : Constant
Frame rate : 23.976 (23976/1000) FPS
Color space : YUV
Chroma subsampling : 4:2:0
Bit depth : 8 bits
Scan type : Progressive
Bits/(Pixel*Frame) : 0.067
Stream size : 1.67 GiB (88%)
Writing library : x264 core 152 r2851M ba24899

Default : Yes
Forced : No

Audio #1
ID : 2
Format : AAC
Format/Info : Advanced Audio Codec
Format profile : LC
Codec ID : A_AAC-2
Duration : 1 h 35 min
Bit rate : 128 kb/s
Channel(s) : 2 channels
Channel positions : Front: L R
Sampling rate : 44.1 kHz
Frame rate : 43.066 FPS (1024 SPF)
Compression mode : Lossy
Stream size : 87.3 MiB (4%)
Title : TOrrent tuRK
Language : Turkish
Default : Yes
Forced : No

Audio #2
ID : 3
Format : AAC
Format/Info : Advanced Audio Codec
Format profile : LC
Codec ID : A_AAC-2
Duration : 1 h 35 min
Bit rate : 224 kb/s
Channel(s) : 6 channels
Channel positions : Front: L C R, Side: L R, LFE
Sampling rate : 48.0 kHz
Frame rate : 46.875 FPS (1024 SPF)
Compression mode : Lossy
Stream size : 154 MiB (8%)
Title : TOrrent tuRK
Language : English
Default : No
Forced : No

Text
ID : 4
Format : UTF-8
Codec ID : S_TEXT/UTF8
Codec ID/Info : UTF-8 Plain Text
Duration : 1 h 29 min
Bit rate : 51 b/s
Count of elements : 919
Stream size : 33.6 KiB (0%)
Language : Turkish
Default : No
Forced : No




Henüz yorum yapılmamış.
IMDB Yenile
Event Horizon - Le vaisseau de l'au-delà (1997)
96 Dakika - Horror | Sci-Fi | Thriller
IMDB Puanı: 6.7 6.7/10 ( oy)
Yönetmen(ler): Paul W.S. Anderson
Yazar(lar): Philip Eisner
Yıldızlar: Laurence Fishburne | Sam Neill | Kathleen Quinlan | See full cast & crew
Kadro: Laurence Fishburne | Sam Neill | Kathleen Quinlan | Joely Richardson | Richard T. Jones | Jack Noseworthy | Jason Isaacs | Sean Pertwee | Peter Marinker | Barclay Wright | Robert Jezek
Hiçbir Şey Bulunamadı.

web counter