Bu Sunum 0.5 Oranında Seed Edilmesi Mecburdur.
Kure - Sphere 1998 1080p BluRay x264 DUAL TR-ENG TORK

Genişletmek için Tıkla!
10-01-2018 07:04 , playdevil Tarafından Yüklendi.
Kaynaklar: 2 / İndirilen: 0 / Boyut: 2.68 GB / Tamamlandı: 22
Torrenti İndir  Torrenti Şikayet Et Torrent Tanımı Tanıtım Videosu
IMDB Puanı: 6.1 6.1/10 Kategori: Bilim Kurgu | Drama | Gizem | Korku
Kategori: Yabancı Filmler > 1080p
http://www.imdb.com/title/tt0120184/

Kure - Sphere 1998 1080p BluRay x264 DUAL TR-ENG TORK





AÇIKLAMA

Vizyon tarihi: 10 Nisan 1998 (2s 13dk)

Yönetmen: Barry Levinson

Oyuncular: Dustin Hoffman, Sharon Stone, Samuel L. Jackson

Tür: Korku, Bilimkurgu, Gerilim

Ülke: ABD

Pasifik Okyanusun uçsuz bucaksız derinliklerinde esrarengiz bir batık gemi keşfedilir. Gemiyi araştırmak için bir araya gelen bir grup bilim adamı, bu tuhaf geminin sırrını çözmeye kararlıdır. Geminin içerisinde bulunan bir küre, Amerikan hükümeti tarafından tanımlanamayan uçan obje olarak anlandırılır. Kürenin içinde olan bir bilgisayar klavyesinin üzerinde ise ‘Amerika-2048’ yazmaktadır. Kürenin gelecek zamandan geldiğine kanaat getiren ekip, esrarengiz objenin sunduğu diğer gizemleri çözmeye çabalarken kendileriyle yüzleşmek durumunda kalacaklardır. Amerikan sinemasının en önemli yönetmenlerinden biri olan Barry Levinson’ın yönettiği film müthiş oyuncu kadrosuyla ayrıca dikkat çekiyor. Filmin başrollerinde Dustin Hoffman, Sharon Stone, Samuel L. Jackson, Queen Latifah ve Liev Schreiber gibi isimler var.



Genişlet Kod:
Format : Matroska
Format version : Version 4 / Version 2
File size : 2.68 GiB
Duration : 2 h 10 min
Overall bit rate : 2 942 kb/s
Encoded date : UTC 2018-01-10 03:00:46
Writing application : mkvmerge v8.5.1 ('Where you lead I will follow') 32bit
Writing library : libebml v1.3.3 + libmatroska v1.4.4
Attachments : TORK.png

Video
ID : 1
Format : AVC
Format/Info : Advanced Video Codec
Format profile : High@L4.1
Format settings : CABAC / 4 Ref Frames
Format settings, CABAC : Yes
Format settings, RefFrames : 4 frames
Codec ID : V_MPEG4/ISO/AVC
Duration : 2 h 10 min
Bit rate : 2 500 kb/s
Width : 1 920 pixels
Height : 800 pixels
Display aspect ratio : 2.40:1
Frame rate mode : Constant
Frame rate : 23.976 (23976/1000) FPS
Color space : YUV
Chroma subsampling : 4:2:0
Bit depth : 8 bits
Scan type : Progressive
Bits/(Pixel*Frame) : 0.068
Stream size : 2.30 GiB (86%)
Writing library : x264 core 152 r2851M ba24899

Default : Yes
Forced : No

Audio #1
ID : 2
Format : AAC
Format/Info : Advanced Audio Codec
Format profile : LC
Codec ID : A_AAC-2
Duration : 2 h 10 min
Bit rate : 192 kb/s
Channel(s) : 2 channels
Channel positions : Front: L R
Sampling rate : 44.1 kHz
Frame rate : 43.066 FPS (1024 SPF)
Compression mode : Lossy
Stream size : 179 MiB (7%)
Title : TOrrent tuRK
Language : Turkish
Default : Yes
Forced : No

Audio #2
ID : 3
Format : AAC
Format/Info : Advanced Audio Codec
Format profile : LC
Codec ID : A_AAC-2
Duration : 2 h 10 min
Bit rate : 224 kb/s
Channel(s) : 6 channels
Channel positions : Front: L C R, Side: L R, LFE
Sampling rate : 48.0 kHz
Frame rate : 46.875 FPS (1024 SPF)
Compression mode : Lossy
Stream size : 209 MiB (8%)
Title : TOrrent tuRK
Language : English
Default : No
Forced : No

Text
ID : 4
Format : UTF-8
Codec ID : S_TEXT/UTF8
Codec ID/Info : UTF-8 Plain Text
Duration : 2 h 9 min
Bit rate : 52 b/s
Count of elements : 1800
Stream size : 49.9 KiB (0%)
Language : Turkish
Default : No
Forced : No




bkrbyk, demircan67, cantur74 ve diger 9 kisi bunu begendi.

Kure - Sphere 1998 1080p BluRay x264 DUAL TR-ENG TORK





AÇIKLAMA

Vizyon tarihi: 10 Nisan 1998 (2s 13dk)

Yönetmen: Barry Levinson

Oyuncular: Dustin Hoffman, Sharon Stone, Samuel L. Jackson

Tür: Korku, Bilimkurgu, Gerilim

Ülke: ABD

Pasifik Okyanusun uçsuz bucaksız derinliklerinde esrarengiz bir batık gemi keşfedilir. Gemiyi araştırmak için bir araya gelen bir grup bilim adamı, bu tuhaf geminin sırrını çözmeye kararlıdır. Geminin içerisinde bulunan bir küre, Amerikan hükümeti tarafından tanımlanamayan uçan obje olarak anlandırılır. Kürenin içinde olan bir bilgisayar klavyesinin üzerinde ise ‘Amerika-2048’ yazmaktadır. Kürenin gelecek zamandan geldiğine kanaat getiren ekip, esrarengiz objenin sunduğu diğer gizemleri çözmeye çabalarken kendileriyle yüzleşmek durumunda kalacaklardır. Amerikan sinemasının en önemli yönetmenlerinden biri olan Barry Levinson’ın yönettiği film müthiş oyuncu kadrosuyla ayrıca dikkat çekiyor. Filmin başrollerinde Dustin Hoffman, Sharon Stone, Samuel L. Jackson, Queen Latifah ve Liev Schreiber gibi isimler var.



Genişlet Kod:
Format : Matroska
Format version : Version 4 / Version 2
File size : 2.68 GiB
Duration : 2 h 10 min
Overall bit rate : 2 942 kb/s
Encoded date : UTC 2018-01-10 03:00:46
Writing application : mkvmerge v8.5.1 ('Where you lead I will follow') 32bit
Writing library : libebml v1.3.3 + libmatroska v1.4.4
Attachments : TORK.png

Video
ID : 1
Format : AVC
Format/Info : Advanced Video Codec
Format profile : High@L4.1
Format settings : CABAC / 4 Ref Frames
Format settings, CABAC : Yes
Format settings, RefFrames : 4 frames
Codec ID : V_MPEG4/ISO/AVC
Duration : 2 h 10 min
Bit rate : 2 500 kb/s
Width : 1 920 pixels
Height : 800 pixels
Display aspect ratio : 2.40:1
Frame rate mode : Constant
Frame rate : 23.976 (23976/1000) FPS
Color space : YUV
Chroma subsampling : 4:2:0
Bit depth : 8 bits
Scan type : Progressive
Bits/(Pixel*Frame) : 0.068
Stream size : 2.30 GiB (86%)
Writing library : x264 core 152 r2851M ba24899

Default : Yes
Forced : No

Audio #1
ID : 2
Format : AAC
Format/Info : Advanced Audio Codec
Format profile : LC
Codec ID : A_AAC-2
Duration : 2 h 10 min
Bit rate : 192 kb/s
Channel(s) : 2 channels
Channel positions : Front: L R
Sampling rate : 44.1 kHz
Frame rate : 43.066 FPS (1024 SPF)
Compression mode : Lossy
Stream size : 179 MiB (7%)
Title : TOrrent tuRK
Language : Turkish
Default : Yes
Forced : No

Audio #2
ID : 3
Format : AAC
Format/Info : Advanced Audio Codec
Format profile : LC
Codec ID : A_AAC-2
Duration : 2 h 10 min
Bit rate : 224 kb/s
Channel(s) : 6 channels
Channel positions : Front: L C R, Side: L R, LFE
Sampling rate : 48.0 kHz
Frame rate : 46.875 FPS (1024 SPF)
Compression mode : Lossy
Stream size : 209 MiB (8%)
Title : TOrrent tuRK
Language : English
Default : No
Forced : No

Text
ID : 4
Format : UTF-8
Codec ID : S_TEXT/UTF8
Codec ID/Info : UTF-8 Plain Text
Duration : 2 h 9 min
Bit rate : 52 b/s
Count of elements : 1800
Stream size : 49.9 KiB (0%)
Language : Turkish
Default : No
Forced : No




Henüz yorum yapılmamış.
IMDB Yenile
Sphère (1998)
134 Dakika - Drama | Horror | Mystery | Sci-Fi | Thriller
IMDB Puanı: 6.1 6.1/10 ( oy)
Yönetmen(ler): Barry Levinson
Yazar(lar): Michael Crichton | Kurt Wimmer
Yıldızlar: Dustin Hoffman | Sharon Stone | Samuel L. Jackson | See full cast & crew
Kadro: Dustin Hoffman | Sharon Stone | Samuel L. Jackson | Peter Coyote | Liev Schreiber | Queen Latifah | Marga Gómez | Bernard Hocke | Michael Keys Hall
Hiçbir Şey Bulunamadı.

web counter