Bu Sunum 0.5 Oranında Seed Edilmesi Mecburdur.
Bulut Atlasi - Cloud Atlas 2012 1080p BluRay x264 DUAL DTS TR-ENG by playdevil TORK

Genişletmek için Tıkla!
10-01-2018 07:04 , playdevil Tarafından Yüklendi.
Kaynaklar: 5 / İndirilen: 0 / Boyut: 5.59 GB / Tamamlandı: 49
Torrenti İndir  Torrenti Şikayet Et Torrent Tanımı Tanıtım Videosu
IMDB Puanı: 7.5 7.5/10 Kategori: Aksiyon | Bilim Kurgu | Drama | Gizem
Kategori: Yabancı Filmler > 1080p
http://www.imdb.com/title/tt1371111/

Bulut Atlasi - Cloud Atlas 2012 1080p BluRay x264 DUAL DTS TR-ENG by playdevil TORK





AÇIKLAMA

Vizyon tarihi: 26 Ekim 2012 (2s 44dk)

Yönetmen: Lana Wachowski, Tom Tykwer devamı

Oyuncular: Tom Hanks, Halle Berry, Jim Broadbent

Tür: Dram, Bilimkurgu, Gerilim

Ülke: Almanya, ABD, Hong Kong, Singapur

1850 yılında Pasifik Okyanusu'ndayız. Adam Ewing Yeni Zelanda'daki takım adalardan zorlu bir deniz yolculuğu yaparak Californiya’daki evine dönmektedir. 1930'lu yıllarda Belçika'da yaşayan beş parasız ama yetenekli bir bestekar olan Robert Frobisher'ın elinde Adam Ewing'in günlüğü vardır. Luisa Rey ise Reagan yönetimindeki Amerika'da yaşayan isyankar ruhlu bir gazetecidir. Yayın evi sahibi Timothy Cavendish ise alıcaklılarından canını kurtarmaya çalışır. Kendisini var eden sisteme isyan eden android garson Sonmi~451 ise yakın gelecekte Güney Kore'dedir. Zachry ise medeniyetin çöküşüne ve ilkel kabilelerin insanlığa hükmetmesine şahit olmak üzeredir...

Alt başlığının da dediği gibi Bulut Atlası'nda Geçmiş, Şimdi, Gelecek, Her Şey Birbiriyle Bağlantılı...

Lana ve Andy Wachowski kardeşlerin Alman yönetmen Tom Tykwer ile ortaklaşa senaryosunu yazıp yönettikleri filmde Tom Hanks, Halle Berry, Hugh Grant, Hugo Weaving, Jim Sturgess, Ben Whishaw, James D'Arcy, Doona Bae ve Susan Sarandon gibi her biri ayrı yıldız olan isimler yer alıyor.



Genişlet Kod:
Format : Matroska
Format version : Version 4 / Version 2
File size : 5.59 GiB
Duration : 2 h 52 min
Overall bit rate : 4 653 kb/s
Encoded date : UTC 2018-01-10 03:22:16
Writing application : mkvmerge v6.1.0 ('Old Devil') built on Mar 2 2013 14:32:37
Writing library : libebml v1.3.0 + libmatroska v1.4.0
Video
ID : 1
Format : AVC
Format/Info : Advanced Video Codec
Format profile : High@L4
Format settings : CABAC / 4 Ref Frames
Format settings, CABAC : Yes
Format settings, ReFrames : 4 frames
Codec ID : V_MPEG4/ISO/AVC
Duration : 2 h 52 min
Bit rate : 3 500 kb/s
Width : 1 920 pixels
Height : 816 pixels
Display aspect ratio : 2.35:1
Frame rate mode : Constant
Frame rate : 23.976 (24000/1001) FPS
Color space : YUV
Chroma subsampling : 4:2:0
Bit depth : 8 bits
Scan type : Progressive
Bits/(Pixel*Frame) : 0.093
Stream size : 4.10 GiB (73%)
Writing library : x264 core 152 r2851 ba24899
Default : Yes
Forced : No
Statistics Tags Issue : mkvmerge v17.0.0 ('Be Ur Friend') 64-bit 2018-01-04 11:59:57 / mkvmerge v6.1.0 ('Old Devil') built on Mar 2 2013 14:32:37 2018-01-10 03:22:16
FromStats_BitRate : 3498061
FromStats_Duration : 02:52:07.317000000
FromStats_FrameCount : 247608
FromStats_StreamSize : 4515699053
Audio #1
ID : 2
Format : DTS
Format/Info : Digital Theater Systems
Format profile : ES Discrete / Core
Codec ID : A_DTS
Duration : 2 h 52 min
Bit rate mode : Constant
Bit rate : 768 kb/s
Channel(s) : 7 channels / 6 channels
Channel positions : Front: L C R, Side: L R, Back: C, LFE / Front: L C R, Side: L R, LFE
Sampling rate : 48.0 kHz
Frame rate : 93.750 FPS (512 SPF)
Bit depth : 24 bits
Compression mode : Lossy
Stream size : 945 MiB (17%)
Language : Turkish
Default : Yes
Forced : No
Audio #2
ID : 3
Format : AC-3
Format/Info : Audio Coding 3
Codec ID : A_AC3
Duration : 2 h 52 min
Bit rate mode : Constant
Bit rate : 384 kb/s
Channel(s) : 6 channels
Channel positions : Front: L C R, Side: L R, LFE
Sampling rate : 48.0 kHz
Frame rate : 31.250 FPS (1536 SPF)
Bit depth : 16 bits
Compression mode : Lossy
Stream size : 473 MiB (8%)
Language : English
Service kind : Complete Main
Default : No
Forced : No
Text
ID : 4
Format : UTF-8
Codec ID : S_TEXT/UTF8
Codec ID/Info : UTF-8 Plain Text
Language : Turkish
Default : No
Forced : No




karakuzu, neticem, bkrbyk ve diger 15 kisi bunu begendi.

Bulut Atlasi - Cloud Atlas 2012 1080p BluRay x264 DUAL DTS TR-ENG by playdevil TORK





AÇIKLAMA

Vizyon tarihi: 26 Ekim 2012 (2s 44dk)

Yönetmen: Lana Wachowski, Tom Tykwer devamı

Oyuncular: Tom Hanks, Halle Berry, Jim Broadbent

Tür: Dram, Bilimkurgu, Gerilim

Ülke: Almanya, ABD, Hong Kong, Singapur

1850 yılında Pasifik Okyanusu'ndayız. Adam Ewing Yeni Zelanda'daki takım adalardan zorlu bir deniz yolculuğu yaparak Californiya’daki evine dönmektedir. 1930'lu yıllarda Belçika'da yaşayan beş parasız ama yetenekli bir bestekar olan Robert Frobisher'ın elinde Adam Ewing'in günlüğü vardır. Luisa Rey ise Reagan yönetimindeki Amerika'da yaşayan isyankar ruhlu bir gazetecidir. Yayın evi sahibi Timothy Cavendish ise alıcaklılarından canını kurtarmaya çalışır. Kendisini var eden sisteme isyan eden android garson Sonmi~451 ise yakın gelecekte Güney Kore'dedir. Zachry ise medeniyetin çöküşüne ve ilkel kabilelerin insanlığa hükmetmesine şahit olmak üzeredir...

Alt başlığının da dediği gibi Bulut Atlası'nda Geçmiş, Şimdi, Gelecek, Her Şey Birbiriyle Bağlantılı...

Lana ve Andy Wachowski kardeşlerin Alman yönetmen Tom Tykwer ile ortaklaşa senaryosunu yazıp yönettikleri filmde Tom Hanks, Halle Berry, Hugh Grant, Hugo Weaving, Jim Sturgess, Ben Whishaw, James D'Arcy, Doona Bae ve Susan Sarandon gibi her biri ayrı yıldız olan isimler yer alıyor.



Genişlet Kod:
Format : Matroska
Format version : Version 4 / Version 2
File size : 5.59 GiB
Duration : 2 h 52 min
Overall bit rate : 4 653 kb/s
Encoded date : UTC 2018-01-10 03:22:16
Writing application : mkvmerge v6.1.0 ('Old Devil') built on Mar 2 2013 14:32:37
Writing library : libebml v1.3.0 + libmatroska v1.4.0
Video
ID : 1
Format : AVC
Format/Info : Advanced Video Codec
Format profile : High@L4
Format settings : CABAC / 4 Ref Frames
Format settings, CABAC : Yes
Format settings, ReFrames : 4 frames
Codec ID : V_MPEG4/ISO/AVC
Duration : 2 h 52 min
Bit rate : 3 500 kb/s
Width : 1 920 pixels
Height : 816 pixels
Display aspect ratio : 2.35:1
Frame rate mode : Constant
Frame rate : 23.976 (24000/1001) FPS
Color space : YUV
Chroma subsampling : 4:2:0
Bit depth : 8 bits
Scan type : Progressive
Bits/(Pixel*Frame) : 0.093
Stream size : 4.10 GiB (73%)
Writing library : x264 core 152 r2851 ba24899
Default : Yes
Forced : No
Statistics Tags Issue : mkvmerge v17.0.0 ('Be Ur Friend') 64-bit 2018-01-04 11:59:57 / mkvmerge v6.1.0 ('Old Devil') built on Mar 2 2013 14:32:37 2018-01-10 03:22:16
FromStats_BitRate : 3498061
FromStats_Duration : 02:52:07.317000000
FromStats_FrameCount : 247608
FromStats_StreamSize : 4515699053
Audio #1
ID : 2
Format : DTS
Format/Info : Digital Theater Systems
Format profile : ES Discrete / Core
Codec ID : A_DTS
Duration : 2 h 52 min
Bit rate mode : Constant
Bit rate : 768 kb/s
Channel(s) : 7 channels / 6 channels
Channel positions : Front: L C R, Side: L R, Back: C, LFE / Front: L C R, Side: L R, LFE
Sampling rate : 48.0 kHz
Frame rate : 93.750 FPS (512 SPF)
Bit depth : 24 bits
Compression mode : Lossy
Stream size : 945 MiB (17%)
Language : Turkish
Default : Yes
Forced : No
Audio #2
ID : 3
Format : AC-3
Format/Info : Audio Coding 3
Codec ID : A_AC3
Duration : 2 h 52 min
Bit rate mode : Constant
Bit rate : 384 kb/s
Channel(s) : 6 channels
Channel positions : Front: L C R, Side: L R, LFE
Sampling rate : 48.0 kHz
Frame rate : 31.250 FPS (1536 SPF)
Bit depth : 16 bits
Compression mode : Lossy
Stream size : 473 MiB (8%)
Language : English
Service kind : Complete Main
Default : No
Forced : No
Text
ID : 4
Format : UTF-8
Codec ID : S_TEXT/UTF8
Codec ID/Info : UTF-8 Plain Text
Language : Turkish
Default : No
Forced : No




bu altyazı imis yine de tessekkurler(

murathanpo 12-01-2018 16:28
playdevil Bunu Beğendi.
yoo altyazılı değil türkçe dublaj da var
playdevil 13-01-2018 00:35
direk alt yazılı acılıyor bilgiisayardan nasıl acılıyor peki
murathanpo 13-01-2018 00:50
playdevil Bunu Beğendi.
onatıcıda altyazı goster kısmı açık kalmıştır onu kapatırsan altyazı görünmez
playdevil 13-01-2018 01:33
IMDB Yenile
Cloud Atlas (2012)
172 Dakika - Action | Drama | Mystery | Sci-Fi
IMDB Puanı: 7.5 7.5/10 ( oy)
Yönetmen(ler): Tom Tykwer | Lana Wachowski | 1 more credit
Yazar(lar): David Mitchell | Lana Wachowski
Yıldızlar: Tom Hanks | Halle Berry | Hugh Grant | See full cast & crew
Kadro: Tom Hanks | Halle Berry | Jim Broadbent | Hugo Weaving | Jim Sturgess | Doona Bae | Ben Whishaw | Keith David | James D'Arcy | Xun Zhou | David Gyasi | Susan Sarandon | Hugh Grant | Robert Fyfe | Martin Wuttke
Hiçbir Şey Bulunamadı.

web counter