Bu Sunum 0.5 Oranında Seed Edilmesi Mecburdur.
Ufak Tefek Cinayetler BL 11 WepRip 720p AC3 by TheWelleTy TORK

Genişletmek için Tıkla!
10-01-2018 23:18 , TheWelleTy Tarafından Yüklendi.
Kaynaklar: 2 / İndirilen: 0 / Boyut: 1.08 GB / Tamamlandı: 37
Torrenti İndir  Torrenti Şikayet Et Torrent Tanımı Tanıtım Videosu
IMDB Puanı: 8.4 8.4/10 Kategori: Suç
Kategori: TV Kayıtları > Yerli / Dizi
http://www.imdb.com/title/tt7535994/

Ufak Tefek Cinayetler BL 11 WepRip 720p AC3 by TheWelleTy TORK





Genişlet Kod:
General
Unique ID : 232832121303760813438760911296869506031 (0xAF29D5DF9E91B6D88E7165D43AB51BEF)
Complete name : D:\DIZILER\Ufak Tefek Cinayetler\Ufak.Tefek.Cinayetler.BL.11.WepRip.720p.AC3.by.TheWelleTy.TORK.mkv
Format : Matroska
Format version : Version 2
File size : 1.08 GiB
Duration : 2h 15mn
Overall bit rate : 1 138 Kbps
Encoded date : UTC 2018-01-09 23:16:05
Writing application : mkvmerge v5.8.0 ('No Sleep / Pillow') built on Sep 2 2012 15:37:04
Writing library : libebml v1.2.3 + libmatroska v1.3.0
Video
ID : 1
Format : AVC
Format/Info : Advanced Video Codec
Format profile : High@L3.1
Format settings, CABAC : Yes
Format settings, ReFrames : 4 frames
Codec ID : V_MPEG4/ISO/AVC
Duration : 2h 15mn
Bit rate : 1 000 Kbps
Width : 1 280 pixels
Height : 720 pixels
Display aspect ratio : 16:9
Frame rate mode : Constant
Frame rate : 25.000 fps
Color space : YUV
Chroma subsampling : 4:2:0
Bit depth : 8 bits
Scan type : Progressive
Bits/(Pixel*Frame) : 0.043
Stream size : 957 MiB (87%)
Writing library : x264 core 128 r2216 198a7ea
Encoding settings : cabac=1 / ref=3 / deblock=1:-1:-1 / analyse=0x3:0x113 / me=hex / subme=7 / psy=1 / psy_rd=1.00:0.15 / mixed_ref=1 / me_range=16 / chroma_me=1 / trellis=1 / 8x8dct=1 / cqm=0 / deadzone=21,11 / fast_pskip=1 / chroma_qp_offset=-3 / threads=6 / lookahead_threads=1 / sliced_threads=0 / nr=0 / decimate=1 / interlaced=0 / bluray_compat=0 / constrained_intra=0 / bframes=3 / b_pyramid=2 / b_adapt=1 / b_bias=0 / direct=1 / weightb=1 / open_gop=0 / weightp=2 / keyint=250 / keyint_min=25 / scenecut=40 / intra_refresh=0 / rc_lookahead=40 / rc=abr / mbtree=1 / bitrate=1000 / ratetol=1.0 / qcomp=0.60 / qpmin=0 / qpmax=69 / qpstep=4 / ip_ratio=1.40 / aq=1:1.00
Default : Yes
Forced : No
Audio
ID : 2
Format : AC-3
Format/Info : Audio Coding 3
Mode extension : CM (complete main)
Format settings, Endianness : Big
Codec ID : A_AC3
Duration : 2h 15mn
Bit rate mode : Constant
Bit rate : 128 Kbps
Channel(s) : 2 channels
Channel positions : Front: L R
Sampling rate : 44.1 KHz
Compression mode : Lossy
Stream size : 124 MiB (11%)
Language : Turkish
Default : Yes
Forced : No









mustafaharputi, ashara, zeus83tr ve diger 16 kisi bunu begendi.

Ufak Tefek Cinayetler BL 11 WepRip 720p AC3 by TheWelleTy TORK





Genişlet Kod:
General
Unique ID : 232832121303760813438760911296869506031 (0xAF29D5DF9E91B6D88E7165D43AB51BEF)
Complete name : D:\DIZILER\Ufak Tefek Cinayetler\Ufak.Tefek.Cinayetler.BL.11.WepRip.720p.AC3.by.TheWelleTy.TORK.mkv
Format : Matroska
Format version : Version 2
File size : 1.08 GiB
Duration : 2h 15mn
Overall bit rate : 1 138 Kbps
Encoded date : UTC 2018-01-09 23:16:05
Writing application : mkvmerge v5.8.0 ('No Sleep / Pillow') built on Sep 2 2012 15:37:04
Writing library : libebml v1.2.3 + libmatroska v1.3.0
Video
ID : 1
Format : AVC
Format/Info : Advanced Video Codec
Format profile : High@L3.1
Format settings, CABAC : Yes
Format settings, ReFrames : 4 frames
Codec ID : V_MPEG4/ISO/AVC
Duration : 2h 15mn
Bit rate : 1 000 Kbps
Width : 1 280 pixels
Height : 720 pixels
Display aspect ratio : 16:9
Frame rate mode : Constant
Frame rate : 25.000 fps
Color space : YUV
Chroma subsampling : 4:2:0
Bit depth : 8 bits
Scan type : Progressive
Bits/(Pixel*Frame) : 0.043
Stream size : 957 MiB (87%)
Writing library : x264 core 128 r2216 198a7ea
Encoding settings : cabac=1 / ref=3 / deblock=1:-1:-1 / analyse=0x3:0x113 / me=hex / subme=7 / psy=1 / psy_rd=1.00:0.15 / mixed_ref=1 / me_range=16 / chroma_me=1 / trellis=1 / 8x8dct=1 / cqm=0 / deadzone=21,11 / fast_pskip=1 / chroma_qp_offset=-3 / threads=6 / lookahead_threads=1 / sliced_threads=0 / nr=0 / decimate=1 / interlaced=0 / bluray_compat=0 / constrained_intra=0 / bframes=3 / b_pyramid=2 / b_adapt=1 / b_bias=0 / direct=1 / weightb=1 / open_gop=0 / weightp=2 / keyint=250 / keyint_min=25 / scenecut=40 / intra_refresh=0 / rc_lookahead=40 / rc=abr / mbtree=1 / bitrate=1000 / ratetol=1.0 / qcomp=0.60 / qpmin=0 / qpmax=69 / qpstep=4 / ip_ratio=1.40 / aq=1:1.00
Default : Yes
Forced : No
Audio
ID : 2
Format : AC-3
Format/Info : Audio Coding 3
Mode extension : CM (complete main)
Format settings, Endianness : Big
Codec ID : A_AC3
Duration : 2h 15mn
Bit rate mode : Constant
Bit rate : 128 Kbps
Channel(s) : 2 channels
Channel positions : Front: L R
Sampling rate : 44.1 KHz
Compression mode : Lossy
Stream size : 124 MiB (11%)
Language : Turkish
Default : Yes
Forced : No









Henüz yorum yapılmamış.
IMDB Yenile
Ufak Tefek Cinayetler (2017)
Dakika - Action | Drama | Mystery
IMDB Puanı: 8.4 8.4/10 ( oy)
Yönetmen(ler):
Yazar(lar):
Yıldızlar: Tülin Özen | Yildiray Sahinler | Bade Iscil | See full cast & crew
Kadro: Tülin Özen | Yildiray Sahinler | Bade Iscil | Ferit Aktug | Selim Bayraktar | Tansu Biçer | Duygu Sarisin | Hayal Köseoglu | Gökçe Bahadir | Aslihan Gürbüz | Mert Firat | Umut Arda Atan | Alican Aytekin | Derya Beserler | Hulya Boceklioglu | Sertaç Ekici | Aylin Engör | Aslihan Kapansahin | Doruk Özörmenoglu | Lavinya Ünlüer | Yigit Çelebi | Duygu Akdeniz | Gorgu Altug | Kimya Gökçe Aytaç | Gümeç Alpay Aslan | Senem Kiroglu Nane | Reyhan Sadikoglu | Tulin Yazkan | Ebru Bilgin
Hiçbir Şey Bulunamadı.

web counter