Bu Sunum 0.5 Oranında Seed Edilmesi Mecburdur.
Tum Azizler - All Saints 2017 720p BluRay x264 DUAL TR-ENG TORK

Genişletmek için Tıkla!
11-01-2018 06:12 , playdevil Tarafından Yüklendi.
Kaynaklar: 2 / İndirilen: 0 / Boyut: 1.6 GB / Tamamlandı: 17
Torrenti İndir  Torrenti Şikayet Et Torrent Tanımı Tanıtım Videosu
IMDB Puanı: 5.8 5.8/10 Kategori: Drama
Kategori: Yabancı Filmler > 720p
http://www.imdb.com/title/tt4663548/

Tum Azizler - All Saints 2017 720p BluRay x264 DUAL TR-ENG TORK





AÇIKLAMA

Satıcılığı bırakıp papazlık yapmaya başlayan Michael Spurlock ve Myanmar'dan gelen bir grup mültecinin yaşanmış hikayesinden uyarlanan film, kapatılması emredilen küçük bir kiliseyi ve gelecekleri için her şeyi riske atarak tohum ekmeye çalışmalarını konu alıyor.



Genişlet Kod:
Format : Matroska
Format version : Version 4 / Version 2
File size : 1.60 GiB
Duration : 1 h 48 min
Overall bit rate : 2 111 kb/s
Encoded date : UTC 2018-01-11 03:23:55
Writing application : mkvmerge v8.5.1 ('Where you lead I will follow') 32bit
Writing library : libebml v1.3.3 + libmatroska v1.4.4
Attachments : TORK.png
Video
ID : 1
Format : AVC
Format/Info : Advanced Video Codec
Format profile : High@L4.1
Format settings : CABAC / 4 Ref Frames
Format settings, CABAC : Yes
Format settings, RefFrames : 4 frames
Codec ID : V_MPEG4/ISO/AVC
Duration : 1 h 48 min
Bit rate : 1 500 kb/s
Width : 1 280 pixels
Height : 536 pixels
Display aspect ratio : 2.40:1
Frame rate mode : Constant
Frame rate : 23.976 (23976/1000) FPS
Color space : YUV
Chroma subsampling : 4:2:0
Bit depth : 8 bits
Scan type : Progressive
Bits/(Pixel*Frame) : 0.091
Stream size : 1.14 GiB (71%)
Writing library : x264 core 152 r2851M ba24899
Default : Yes
Forced : No
Audio #1
ID : 2
Format : AC-3
Format/Info : Audio Coding 3
Format settings, Endianness : Big
Codec ID : A_AC3
Duration : 1 h 48 min
Bit rate mode : Constant
Bit rate : 384 kb/s
Channel(s) : 2 channels
Channel positions : Front: L R
Sampling rate : 48.0 kHz
Frame rate : 31.250 FPS (1536 SPF)
Bit depth : 16 bits
Compression mode : Lossy
Stream size : 299 MiB (18%)
Title : TOrrent tuRK
Language : Turkish
Service kind : Complete Main
Default : Yes
Forced : No
Audio #2
ID : 3
Format : AAC
Format/Info : Advanced Audio Codec
Format profile : LC
Codec ID : A_AAC-2
Duration : 1 h 48 min
Bit rate : 224 kb/s
Channel(s) : 6 channels
Channel positions : Front: L C R, Side: L R, LFE
Sampling rate : 48.0 kHz
Frame rate : 46.875 FPS (1024 SPF)
Compression mode : Lossy
Stream size : 174 MiB (11%)
Title : TOrrent tuRK
Language : English
Default : No
Forced : No
Text
ID : 4
Format : UTF-8
Codec ID : S_TEXT/UTF8
Codec ID/Info : UTF-8 Plain Text
Duration : 1 h 47 min
Bit rate : 63 b/s
Count of elements : 1520
Stream size : 50.5 KiB (0%)
Language : Turkish
Default : No
Forced : No




ashara, zeus83tr, gece16 ve diger 10 kisi bunu begendi.

Tum Azizler - All Saints 2017 720p BluRay x264 DUAL TR-ENG TORK





AÇIKLAMA

Satıcılığı bırakıp papazlık yapmaya başlayan Michael Spurlock ve Myanmar'dan gelen bir grup mültecinin yaşanmış hikayesinden uyarlanan film, kapatılması emredilen küçük bir kiliseyi ve gelecekleri için her şeyi riske atarak tohum ekmeye çalışmalarını konu alıyor.



Genişlet Kod:
Format : Matroska
Format version : Version 4 / Version 2
File size : 1.60 GiB
Duration : 1 h 48 min
Overall bit rate : 2 111 kb/s
Encoded date : UTC 2018-01-11 03:23:55
Writing application : mkvmerge v8.5.1 ('Where you lead I will follow') 32bit
Writing library : libebml v1.3.3 + libmatroska v1.4.4
Attachments : TORK.png
Video
ID : 1
Format : AVC
Format/Info : Advanced Video Codec
Format profile : High@L4.1
Format settings : CABAC / 4 Ref Frames
Format settings, CABAC : Yes
Format settings, RefFrames : 4 frames
Codec ID : V_MPEG4/ISO/AVC
Duration : 1 h 48 min
Bit rate : 1 500 kb/s
Width : 1 280 pixels
Height : 536 pixels
Display aspect ratio : 2.40:1
Frame rate mode : Constant
Frame rate : 23.976 (23976/1000) FPS
Color space : YUV
Chroma subsampling : 4:2:0
Bit depth : 8 bits
Scan type : Progressive
Bits/(Pixel*Frame) : 0.091
Stream size : 1.14 GiB (71%)
Writing library : x264 core 152 r2851M ba24899
Default : Yes
Forced : No
Audio #1
ID : 2
Format : AC-3
Format/Info : Audio Coding 3
Format settings, Endianness : Big
Codec ID : A_AC3
Duration : 1 h 48 min
Bit rate mode : Constant
Bit rate : 384 kb/s
Channel(s) : 2 channels
Channel positions : Front: L R
Sampling rate : 48.0 kHz
Frame rate : 31.250 FPS (1536 SPF)
Bit depth : 16 bits
Compression mode : Lossy
Stream size : 299 MiB (18%)
Title : TOrrent tuRK
Language : Turkish
Service kind : Complete Main
Default : Yes
Forced : No
Audio #2
ID : 3
Format : AAC
Format/Info : Advanced Audio Codec
Format profile : LC
Codec ID : A_AAC-2
Duration : 1 h 48 min
Bit rate : 224 kb/s
Channel(s) : 6 channels
Channel positions : Front: L C R, Side: L R, LFE
Sampling rate : 48.0 kHz
Frame rate : 46.875 FPS (1024 SPF)
Compression mode : Lossy
Stream size : 174 MiB (11%)
Title : TOrrent tuRK
Language : English
Default : No
Forced : No
Text
ID : 4
Format : UTF-8
Codec ID : S_TEXT/UTF8
Codec ID/Info : UTF-8 Plain Text
Duration : 1 h 47 min
Bit rate : 63 b/s
Count of elements : 1520
Stream size : 50.5 KiB (0%)
Language : Turkish
Default : No
Forced : No




Henüz yorum yapılmamış.
IMDB Yenile
All Saints (2017)
108 Dakika - Drama
IMDB Puanı: 5.8 5.8/10 ( oy)
Yönetmen(ler): Steve Gomer
Yazar(lar): Steve Armour
Yıldızlar: John Corbett | Cara Buono | Myles Moore | See full cast & crew
Kadro: John Corbett | Myles Moore | Nelson Lee | Gregory Alan Williams | Jenne Kang | Todd Truley | Jessejames Locorriere | Mike Parker
Hiçbir Şey Bulunamadı.

web counter