Bu Sunum 0.5 Oranında Seed Edilmesi Mecburdur.
Alkarisi:Cinnet 2015 1080p WEB-DL x264 AC3 TORK

Genişletmek için Tıkla!
11-01-2018 06:20 , playdevil Tarafından Yüklendi.
Kaynaklar: 1 / İndirilen: 0 / Boyut: 1.46 GB / Tamamlandı: 22
Torrenti İndir  Torrenti Şikayet Et Torrent Tanımı Tanıtım Videosu
IMDB Puanı: 2.7 2.7/10 Kategori: Gerilim | Korku
Kategori: Yerli Filmler > 1080p
http://www.imdb.com/title/tt4685332/

Alkarisi:Cinnet 2015 1080p WEB-DL x264 AC3 TORK





AÇIKLAMA

Vizyon tarihi: 26 Haziran 2015 (1s 17dk)

Yönetmen: Muzaffer Gülçek

Oyuncular: Sanem İşler, Tuncay Tarhan, Mehmet Tokatlı

Tür: Korku, Gerilim

Ülke: Türkiye

Korku ve gerilim türündeki Alkarısı: Cinnet filmi, adını yerleşik bir Anadolu efsanesinden alıyor. Genellikle lohusa kadınlara ve atlara musallat olduğu rivayet edilen ve anlatılarda uzun saçlı, çirkin bir kadın olarak tasvir edilen bir cin filmin öyküsünü oluşturyor.

7 aylık hamile olan Dilara, doğum izni alarak işten ayrılır ve bu süreci de evde geçirerek dinleneceği istirahat dönemine girer. Fakat genç kadın eve çekildiğinden beri peşini bırakmayan kabuslar ona hamileliği zehir etmeye başlar. Dilara başına musallat olan bu kabusların altında en yakın arkadaşının, kaynanasının hatta zamansız gelen çocuğun eşi üzerinde yaptığı baskı yüzünden eşinin oyunlarını aramaya başlar.

Yönetmenliğini Muzaffer Gülçek'in üstlendiği filmin senaryosunda Alper Kıvılcım'ın imzası bulunuyor.



Genişlet Kod:
Format : Matroska
Format version : Version 4 / Version 2
File size : 1.46 GiB
Duration : 1 h 12 min
Overall bit rate : 2 886 kb/s
Encoded date : UTC 2018-01-11 03:13:53
Writing application : mkvmerge v6.1.0 ('Old Devil') built on Mar 2 2013 14:32:37
Writing library : libebml v1.3.0 + libmatroska v1.4.0
Video
ID : 1
Format : AVC
Format/Info : Advanced Video Codec
Format profile : High@L4
Format settings : CABAC / 4 Ref Frames
Format settings, CABAC : Yes
Format settings, ReFrames : 4 frames
Codec ID : V_MPEG4/ISO/AVC
Duration : 1 h 12 min
Bit rate : 2 500 kb/s
Width : 1 920 pixels
Height : 1 080 pixels
Display aspect ratio : 16:9
Frame rate mode : Constant
Frame rate : 25.000 FPS
Color space : YUV
Chroma subsampling : 4:2:0
Bit depth : 8 bits
Scan type : Progressive
Bits/(Pixel*Frame) : 0.048
Stream size : 1.24 GiB (85%)
Writing library : x264 core 152 r2851 ba24899
Default : Yes
Forced : No
Statistics Tags Issue : mkvmerge v17.0.0 ('Be Ur Friend') 64-bit 2018-01-11 01:28:21 / mkvmerge v6.1.0 ('Old Devil') built on Mar 2 2013 14:32:37 2018-01-11 03:13:53
FromStats_BitRate : 2499935
FromStats_Duration : 01:12:39.920000000
FromStats_FrameCount : 108998
FromStats_StreamSize : 1362439669
Audio
ID : 2
Format : AC-3
Format/Info : Audio Coding 3
Codec ID : A_AC3
Duration : 1 h 12 min
Bit rate mode : Constant
Bit rate : 384 kb/s
Channel(s) : 1 channel
Channel positions : Front: C
Sampling rate : 44.1 kHz
Frame rate : 28.711 FPS (1536 SPF)
Bit depth : 16 bits
Compression mode : Lossy
Stream size : 200 MiB (13%)
Language : Turkish
Service kind : Complete Main
Default : Yes
Forced : No




ashara, zeus83tr, gece16 ve diger 14 kisi bunu begendi.

Alkarisi:Cinnet 2015 1080p WEB-DL x264 AC3 TORK





AÇIKLAMA

Vizyon tarihi: 26 Haziran 2015 (1s 17dk)

Yönetmen: Muzaffer Gülçek

Oyuncular: Sanem İşler, Tuncay Tarhan, Mehmet Tokatlı

Tür: Korku, Gerilim

Ülke: Türkiye

Korku ve gerilim türündeki Alkarısı: Cinnet filmi, adını yerleşik bir Anadolu efsanesinden alıyor. Genellikle lohusa kadınlara ve atlara musallat olduğu rivayet edilen ve anlatılarda uzun saçlı, çirkin bir kadın olarak tasvir edilen bir cin filmin öyküsünü oluşturyor.

7 aylık hamile olan Dilara, doğum izni alarak işten ayrılır ve bu süreci de evde geçirerek dinleneceği istirahat dönemine girer. Fakat genç kadın eve çekildiğinden beri peşini bırakmayan kabuslar ona hamileliği zehir etmeye başlar. Dilara başına musallat olan bu kabusların altında en yakın arkadaşının, kaynanasının hatta zamansız gelen çocuğun eşi üzerinde yaptığı baskı yüzünden eşinin oyunlarını aramaya başlar.

Yönetmenliğini Muzaffer Gülçek'in üstlendiği filmin senaryosunda Alper Kıvılcım'ın imzası bulunuyor.



Genişlet Kod:
Format : Matroska
Format version : Version 4 / Version 2
File size : 1.46 GiB
Duration : 1 h 12 min
Overall bit rate : 2 886 kb/s
Encoded date : UTC 2018-01-11 03:13:53
Writing application : mkvmerge v6.1.0 ('Old Devil') built on Mar 2 2013 14:32:37
Writing library : libebml v1.3.0 + libmatroska v1.4.0
Video
ID : 1
Format : AVC
Format/Info : Advanced Video Codec
Format profile : High@L4
Format settings : CABAC / 4 Ref Frames
Format settings, CABAC : Yes
Format settings, ReFrames : 4 frames
Codec ID : V_MPEG4/ISO/AVC
Duration : 1 h 12 min
Bit rate : 2 500 kb/s
Width : 1 920 pixels
Height : 1 080 pixels
Display aspect ratio : 16:9
Frame rate mode : Constant
Frame rate : 25.000 FPS
Color space : YUV
Chroma subsampling : 4:2:0
Bit depth : 8 bits
Scan type : Progressive
Bits/(Pixel*Frame) : 0.048
Stream size : 1.24 GiB (85%)
Writing library : x264 core 152 r2851 ba24899
Default : Yes
Forced : No
Statistics Tags Issue : mkvmerge v17.0.0 ('Be Ur Friend') 64-bit 2018-01-11 01:28:21 / mkvmerge v6.1.0 ('Old Devil') built on Mar 2 2013 14:32:37 2018-01-11 03:13:53
FromStats_BitRate : 2499935
FromStats_Duration : 01:12:39.920000000
FromStats_FrameCount : 108998
FromStats_StreamSize : 1362439669
Audio
ID : 2
Format : AC-3
Format/Info : Audio Coding 3
Codec ID : A_AC3
Duration : 1 h 12 min
Bit rate mode : Constant
Bit rate : 384 kb/s
Channel(s) : 1 channel
Channel positions : Front: C
Sampling rate : 44.1 kHz
Frame rate : 28.711 FPS (1536 SPF)
Bit depth : 16 bits
Compression mode : Lossy
Stream size : 200 MiB (13%)
Language : Turkish
Service kind : Complete Main
Default : Yes
Forced : No




Henüz yorum yapılmamış.
IMDB Yenile
Alkarisi: Cinnet (2015)
Dakika - Horror | Thriller
IMDB Puanı: 2.7 2.7/10 ( oy)
Yönetmen(ler): Muzaffer Gülçek
Yazar(lar): Alper Kivicim
Yıldızlar: Sanem Isler | Ilker Köklük | Ceyda Saltadal | See full cast & crew
Kadro: Sanem Isler | Ceyda Saltadal | Mehmet Tokatli | Burcu Polat
Hiçbir Şey Bulunamadı.

web counter