Bu Sunum 0.5 Oranında Seed Edilmesi Mecburdur.
Mutlak Adalet 2014 1080p WEB-DL x264 AC3 TORK

Genişletmek için Tıkla!
11-01-2018 06:20 , playdevil Tarafından Yüklendi.
Kaynaklar: 3 / İndirilen: 0 / Boyut: 1.99 GB / Tamamlandı: 46
Torrenti İndir  Torrenti Şikayet Et Torrent Tanımı Tanıtım Videosu
IMDB Puanı: 5.9 5.9/10 Kategori: Bilim Kurgu | Drama
Kategori: Yerli Filmler > 1080p
http://www.imdb.com/title/tt3202042/

Mutlak Adalet 2014 1080p WEB-DL x264 AC3 TORK





AÇIKLAMA

Vizyon tarihi: 25 Nisan 2014 (1s 24dk)

Yönetmen: Hüseyin Eleman

Oyuncular: Ozan Akbaba, Bülent Çolak, Bihter Dinçel, Turgay Tanülkü

Tür: Dram

Ülke: Türkiye

İzmir´de yaşayan Metin, ailesiyle sakin bir hayat süren başarılı bir öğretmendir. Her gün olduğu gibi işten eve döndüğünde tüyler ürpertici bir manzarayla karşılaştığında hayatı altüst olur. Evlerine hırsız girmiş, karısına tecavüz edilmiş, kızı ise ağır bir şekilde yaralanmıştır. Bu manzarayla karşılaştığında hırsızlardan birini yakalayıp öldürür. Cinayet suçlamasıyla girdiği hapiste cezasını çeker ve çıktığında paramparça olan ailesini yeniden bir araya getirmek için çabalamaya başlar. Kızı Ece yetiştirme yurduna gönderilmiş, eşi Bahar ise psikolojik sorunlar yaşamaktadır. Hapishanedeki arkadaşı Orhan Baba'dan gelen yardımla iş bulur, ev tutar ve hayatı normale dönmeye başlar. Ancak kısa bir süre sonra evlerine giren diğer iki hırsızın delil yetersizliğinden serbest bırakıldığını öğrenmesiyle hayatı tekrar kabusa dönüşür. Şimdi yapması gereken şey hayatını mahveden bu adamları bulup yaptıklarını itiraf ettirerek tekrar hapishaneye gönderilmelerini sağlamaktır.



Genişlet Kod:
Format : Matroska
Format version : Version 4 / Version 2
File size : 1.99 GiB
Duration : 1 h 24 min
Overall bit rate : 3 386 kb/s
Encoded date : UTC 2018-01-11 03:04:58
Writing application : mkvmerge v6.1.0 ('Old Devil') built on Mar 2 2013 14:32:37
Writing library : libebml v1.3.0 + libmatroska v1.4.0
Video
ID : 1
Format : AVC
Format/Info : Advanced Video Codec
Format profile : High@L4
Format settings : CABAC / 4 Ref Frames
Format settings, CABAC : Yes
Format settings, ReFrames : 4 frames
Codec ID : V_MPEG4/ISO/AVC
Duration : 1 h 24 min
Bit rate : 3 000 kb/s
Width : 1 920 pixels
Height : 1 080 pixels
Display aspect ratio : 16:9
Frame rate mode : Constant
Frame rate : 25.000 FPS
Color space : YUV
Chroma subsampling : 4:2:0
Bit depth : 8 bits
Scan type : Progressive
Bits/(Pixel*Frame) : 0.058
Stream size : 1.73 GiB (87%)
Writing library : x264 core 152 r2851 ba24899
Default : Yes
Forced : No
Statistics Tags Issue : mkvmerge v17.0.0 ('Be Ur Friend') 64-bit 2018-01-10 21:45:09 / mkvmerge v6.1.0 ('Old Devil') built on Mar 2 2013 14:32:37 2018-01-11 03:04:58
FromStats_BitRate : 3000140
FromStats_Duration : 01:24:12.600000000
FromStats_FrameCount : 126315
FromStats_StreamSize : 1894813814
Audio
ID : 2
Format : AC-3
Format/Info : Audio Coding 3
Codec ID : A_AC3
Duration : 1 h 24 min
Bit rate mode : Constant
Bit rate : 384 kb/s
Channel(s) : 2 channels
Channel positions : Front: L R
Sampling rate : 44.1 kHz
Frame rate : 28.711 FPS (1536 SPF)
Bit depth : 16 bits
Compression mode : Lossy
Stream size : 231 MiB (11%)
Language : Turkish
Service kind : Complete Main
Default : Yes
Forced : No




ashara, gece16, hayatisahin ve diger 20 kisi bunu begendi.

Mutlak Adalet 2014 1080p WEB-DL x264 AC3 TORK





AÇIKLAMA

Vizyon tarihi: 25 Nisan 2014 (1s 24dk)

Yönetmen: Hüseyin Eleman

Oyuncular: Ozan Akbaba, Bülent Çolak, Bihter Dinçel, Turgay Tanülkü

Tür: Dram

Ülke: Türkiye

İzmir´de yaşayan Metin, ailesiyle sakin bir hayat süren başarılı bir öğretmendir. Her gün olduğu gibi işten eve döndüğünde tüyler ürpertici bir manzarayla karşılaştığında hayatı altüst olur. Evlerine hırsız girmiş, karısına tecavüz edilmiş, kızı ise ağır bir şekilde yaralanmıştır. Bu manzarayla karşılaştığında hırsızlardan birini yakalayıp öldürür. Cinayet suçlamasıyla girdiği hapiste cezasını çeker ve çıktığında paramparça olan ailesini yeniden bir araya getirmek için çabalamaya başlar. Kızı Ece yetiştirme yurduna gönderilmiş, eşi Bahar ise psikolojik sorunlar yaşamaktadır. Hapishanedeki arkadaşı Orhan Baba'dan gelen yardımla iş bulur, ev tutar ve hayatı normale dönmeye başlar. Ancak kısa bir süre sonra evlerine giren diğer iki hırsızın delil yetersizliğinden serbest bırakıldığını öğrenmesiyle hayatı tekrar kabusa dönüşür. Şimdi yapması gereken şey hayatını mahveden bu adamları bulup yaptıklarını itiraf ettirerek tekrar hapishaneye gönderilmelerini sağlamaktır.



Genişlet Kod:
Format : Matroska
Format version : Version 4 / Version 2
File size : 1.99 GiB
Duration : 1 h 24 min
Overall bit rate : 3 386 kb/s
Encoded date : UTC 2018-01-11 03:04:58
Writing application : mkvmerge v6.1.0 ('Old Devil') built on Mar 2 2013 14:32:37
Writing library : libebml v1.3.0 + libmatroska v1.4.0
Video
ID : 1
Format : AVC
Format/Info : Advanced Video Codec
Format profile : High@L4
Format settings : CABAC / 4 Ref Frames
Format settings, CABAC : Yes
Format settings, ReFrames : 4 frames
Codec ID : V_MPEG4/ISO/AVC
Duration : 1 h 24 min
Bit rate : 3 000 kb/s
Width : 1 920 pixels
Height : 1 080 pixels
Display aspect ratio : 16:9
Frame rate mode : Constant
Frame rate : 25.000 FPS
Color space : YUV
Chroma subsampling : 4:2:0
Bit depth : 8 bits
Scan type : Progressive
Bits/(Pixel*Frame) : 0.058
Stream size : 1.73 GiB (87%)
Writing library : x264 core 152 r2851 ba24899
Default : Yes
Forced : No
Statistics Tags Issue : mkvmerge v17.0.0 ('Be Ur Friend') 64-bit 2018-01-10 21:45:09 / mkvmerge v6.1.0 ('Old Devil') built on Mar 2 2013 14:32:37 2018-01-11 03:04:58
FromStats_BitRate : 3000140
FromStats_Duration : 01:24:12.600000000
FromStats_FrameCount : 126315
FromStats_StreamSize : 1894813814
Audio
ID : 2
Format : AC-3
Format/Info : Audio Coding 3
Codec ID : A_AC3
Duration : 1 h 24 min
Bit rate mode : Constant
Bit rate : 384 kb/s
Channel(s) : 2 channels
Channel positions : Front: L R
Sampling rate : 44.1 kHz
Frame rate : 28.711 FPS (1536 SPF)
Bit depth : 16 bits
Compression mode : Lossy
Stream size : 231 MiB (11%)
Language : Turkish
Service kind : Complete Main
Default : Yes
Forced : No




Henüz yorum yapılmamış.
IMDB Yenile
Certain Justice (2014)
84 Dakika - Drama | Sci-Fi
IMDB Puanı: 5.9 5.9/10 ( oy)
Yönetmen(ler): Hüseyin Eleman
Yazar(lar): Hüseyin Eleman
Yıldızlar: Ozan Akbaba | Baris Akin | Bihter Dinçel | See full cast & crew
Kadro: Ozan Akbaba | Bihter Dinçel | Yerkan Kahraman | Didem Soydan | Feyza Uncumusaoglu | Bülent Çolak
Hiçbir Şey Bulunamadı.

web counter