Vikings S05E08 1080p WEBRip 6CH x265 HEVC TR Altyazı TORK

Genişletmek için Tıkla!
12-01-2018 15:09 , aygunatli Tarafından Yüklendi.
Kaynaklar: 1 / İndirilen: 0 / Boyut: 528.45 MB / Tamamlandı: 25
Torrenti İndir  Torrenti Şikayet Et Torrent Tanımı Tanıtım Videosu
IMDB Puanı: 8.6 8.6/10 Kategori: Aksiyon | Drama | Tarihi
Kategori: TV Kayıtları > Yabancı / Dizi
http://www.imdb.com/title/tt2306299/

Vikings S05E08 1080p WEBRip 6CH x265 HEVC TR Altyazı TORK





Genişlet Kod:
Format : Matroska
Format version : Version 4 / Version 2
File size : 528 MiB
Duration : 45 min 35 s
Overall bit rate : 1 620 kb/s
Encoded date : UTC 2018-01-12 07:34:46
Writing application : mkvmerge v19.0.0 ('Brave Captain') 64-bit
Writing library : libebml v1.3.5 + libmatroska v1.4.8
Video
ID : 1
Format : HEVC
Format/Info : High Efficiency Video Coding
Format profile : Main@L4@Main
Codec ID : V_MPEGH/ISO/HEVC
Duration : 45 min 35 s
Bit rate : 1 403 kb/s
Width : 1 920 pixels
Height : 1 080 pixels
Display aspect ratio : 16:9
Frame rate mode : Constant
Frame rate : 23.976 (24000/1001) FPS
Color space : YUV
Chroma subsampling : 4:2:0
Bit depth : 8 bits
Bits/(Pixel*Frame) : 0.028
Stream size : 458 MiB (87%)
Default : Yes
Forced : No
Audio
ID : 2
Format : AAC
Format/Info : Advanced Audio Codec
Format profile : HE-AAC / LC
Format settings : Explicit
Codec ID : A_AAC-2
Duration : 45 min 35 s
Bit rate : 215 kb/s
Channel(s) : 6 channels
Channel(s)_Original : 18 channels
Channel positions : Front: 14, Side: C, Back: C, LFE= 2
Sampling rate : 48.0 kHz / 24.0 kHz
Frame rate : 23.438 FPS (1024 SPF)
Compression mode : Lossy
Delay relative to video : 23 ms
Stream size : 70.2 MiB (13%)
Default : Yes
Forced : No
Text
ID : 3
Format : UTF-8
Codec ID : S_TEXT/UTF8
Codec ID/Info : UTF-8 Plain Text
Duration : 44 min 34 s
Bit rate : 45 b/s
Count of elements : 651
Stream size : 15.0 KiB (0%)
Default : Yes
Forced : No


mustafaharputi, ashara, Kayabey34 ve diger 8 kisi bunu begendi.

Vikings S05E08 1080p WEBRip 6CH x265 HEVC TR Altyazı TORK





Genişlet Kod:
Format : Matroska
Format version : Version 4 / Version 2
File size : 528 MiB
Duration : 45 min 35 s
Overall bit rate : 1 620 kb/s
Encoded date : UTC 2018-01-12 07:34:46
Writing application : mkvmerge v19.0.0 ('Brave Captain') 64-bit
Writing library : libebml v1.3.5 + libmatroska v1.4.8
Video
ID : 1
Format : HEVC
Format/Info : High Efficiency Video Coding
Format profile : Main@L4@Main
Codec ID : V_MPEGH/ISO/HEVC
Duration : 45 min 35 s
Bit rate : 1 403 kb/s
Width : 1 920 pixels
Height : 1 080 pixels
Display aspect ratio : 16:9
Frame rate mode : Constant
Frame rate : 23.976 (24000/1001) FPS
Color space : YUV
Chroma subsampling : 4:2:0
Bit depth : 8 bits
Bits/(Pixel*Frame) : 0.028
Stream size : 458 MiB (87%)
Default : Yes
Forced : No
Audio
ID : 2
Format : AAC
Format/Info : Advanced Audio Codec
Format profile : HE-AAC / LC
Format settings : Explicit
Codec ID : A_AAC-2
Duration : 45 min 35 s
Bit rate : 215 kb/s
Channel(s) : 6 channels
Channel(s)_Original : 18 channels
Channel positions : Front: 14, Side: C, Back: C, LFE= 2
Sampling rate : 48.0 kHz / 24.0 kHz
Frame rate : 23.438 FPS (1024 SPF)
Compression mode : Lossy
Delay relative to video : 23 ms
Stream size : 70.2 MiB (13%)
Default : Yes
Forced : No
Text
ID : 3
Format : UTF-8
Codec ID : S_TEXT/UTF8
Codec ID/Info : UTF-8 Plain Text
Duration : 44 min 34 s
Bit rate : 45 b/s
Count of elements : 651
Stream size : 15.0 KiB (0%)
Default : Yes
Forced : No


Henüz yorum yapılmamış.
IMDB Yenile
Vikings (2013)
44 Dakika - Action | Drama | History | Romance | War
IMDB Puanı: 8.6 8.6/10 ( oy)
Yönetmen(ler):
Yazar(lar):
Yıldızlar: Gustaf Skarsgård | Katheryn Winnick | Alexander Ludwig | See full cast & crew
Kadro: Gustaf Skarsgård | Katheryn Winnick | Alexander Ludwig | Travis Fimmel | Clive Standen | Alex Høgh Andersen | Jordan Patrick Smith | Maude Hirst | Moe Dunford | Alyssa Sutherland | Linus Roache | Georgia Hirst | Jennie Jacques | Jonathan Rhys Meyers | George Blagden | John Kavanagh
Hiçbir Şey Bulunamadı.

web counter