TRT Gunduz Sineması Yalnız Kovboy-Will Penny 1967 HDTvRip 720p AC3 by TheWelleTy TORK

Genişletmek için Tıkla!
Pazartesi saat 22:37 de , TheWelleTy Tarafından Yüklendi.
Kaynaklar: 5 / İndirilen: 0 / Boyut: 835.82 MB / Tamamlandı: 14
Torrenti İndir  Torrenti Şikayet Et Torrent Tanımı
Kategori: Western
Kategori: Yabancı Filmler > 720p

TRT Gunduz Sineması Yalnız Kovboy-Will Penny 1967 HDTvRip 720p AC3 by TheWelleTy TORK





Genişlet Kod:
General
Unique ID : 251198589352184833095224735172746711548 (0xBCFB16A962BCB4A0B5CD09E368D691FC)
Complete name : D:\TORK\TRT.Gunduz.Sinemasi.alnız.Kovboy.1967.HDTvRip.720p.AC3.by.TheWelleTy.TORK.mkv
Format : Matroska
Format version : Version 2
File size : 836 MiB
Duration : 1 h 43 min
Overall bit rate : 1 127 kb/s
Encoded date : UTC 2018-05-21 20:33:28
Writing application : mkvmerge v3.3.0 ('Language') built on Mar 24 2010 14:59:24
Writing library : libebml v0.8.0 + libmatroska v0.9.0
Video
ID : 1
Format : AVC
Format/Info : Advanced Video Codec
Format profile : High@L3.1
Format settings : CABAC / 4 Ref Frames
Format settings, CABAC : Yes
Format settings, ReFrames : 4 frames
Codec ID : V_MPEG4/ISO/AVC
Duration : 1 h 43 min
Bit rate : 1 000 kb/s
Width : 1 280 pixels
Height : 720 pixels
Display aspect ratio : 16:9
Frame rate mode : Constant
Frame rate : 25.000 FPS
Color space : YUV
Chroma subsampling : 4:2:0
Bit depth : 8 bits
Scan type : Progressive
Bits/(Pixel*Frame) : 0.043
Stream size : 724 MiB (87%)
Writing library : x264 core 128 r2216 198a7ea
Encoding settings : cabac=1 / ref=3 / deblock=1:-1:-1 / analyse=0x3:0x113 / me=hex / subme=7 / psy=1 / psy_rd=1.00:0.15 / mixed_ref=1 / me_range=16 / chroma_me=1 / trellis=1 / 8x8dct=1 / cqm=0 / deadzone=21,11 / fast_pskip=1 / chroma_qp_offset=-3 / threads=18 / lookahead_threads=3 / sliced_threads=0 / nr=0 / decimate=1 / interlaced=0 / bluray_compat=0 / constrained_intra=0 / bframes=3 / b_pyramid=2 / b_adapt=1 / b_bias=0 / direct=1 / weightb=1 / open_gop=0 / weightp=2 / keyint=250 / keyint_min=25 / scenecut=40 / intra_refresh=0 / rc_lookahead=40 / rc=abr / mbtree=1 / bitrate=1000 / ratetol=1.0 / qcomp=0.60 / qpmin=0 / qpmax=69 / qpstep=4 / ip_ratio=1.40 / aq=1:1.00
Default : No
Forced : No
Audio
ID : 2
Format : AC-3
Format/Info : Audio Coding 3
Codec ID : A_AC3
Duration : 1 h 43 min
Bit rate mode : Constant
Bit rate : 128 kb/s
Channel(s) : 2 channels
Channel positions : Front: L R
Sampling rate : 48.0 kHz
Frame rate : 31.250 FPS (1536 SPF)
Bit depth : 16 bits
Compression mode : Lossy
Stream size : 94.9 MiB (11%)
Language : English
Service kind : Complete Main
Default : No
Forced : No









TRT Gunduz Sineması Vadiler Aslani-Shane 1953 HDTvRip 720p AC3 by TheWelleTy TORK

Genişletmek için Tıkla!
24-04-2018 10:00 , TheWelleTy Tarafından Yüklendi.
Kaynaklar: 1 / İndirilen: 0 / Boyut: 903.98 MB / Tamamlandı: 19
Torrenti İndir  Torrenti Şikayet Et Torrent Tanımı
Kategori: Western
Kategori: Yabancı Filmler > 720p

TRT Gunduz Sineması Vadiler Aslani-Shane 1953 HDTvRip 720p AC3 by TheWelleTy TORK





Genişlet Kod:
General
Unique ID : 235584773205331848362470739809489870578 (0xB13BFA1727187FD58F491FB12EAF5EF2)
Complete name : D:\TORK\TRT.Gunduz.Sinemasi.Vadiler.Aslani.1953.HDTvRip.720p.AC3.by.TheWelleTy.TORK.mkv
Format : Matroska
Format version : Version 2
File size : 904 MiB
Duration : 1 h 52 min
Overall bit rate : 1 120 kb/s
Encoded date : UTC 2018-04-24 07:54:49
Writing application : mkvmerge v3.3.0 ('Language') built on Mar 24 2010 14:59:24
Writing library : libebml v0.8.0 + libmatroska v0.9.0
Video
ID : 1
Format : AVC
Format/Info : Advanced Video Codec
Format profile : High@L3.1
Format settings : CABAC / 4 Ref Frames
Format settings, CABAC : Yes
Format settings, ReFrames : 4 frames
Codec ID : V_MPEG4/ISO/AVC
Duration : 1 h 52 min
Bit rate : 1 000 kb/s
Width : 1 280 pixels
Height : 720 pixels
Display aspect ratio : 16:9
Frame rate mode : Constant
Frame rate : 25.000 FPS
Color space : YUV
Chroma subsampling : 4:2:0
Bit depth : 8 bits
Scan type : Progressive
Bits/(Pixel*Frame) : 0.043
Stream size : 783 MiB (87%)
Writing library : x264 core 128 r2216 198a7ea
Encoding settings : cabac=1 / ref=3 / deblock=1:-1:-1 / analyse=0x3:0x113 / me=hex / subme=7 / psy=1 / psy_rd=1.00:0.15 / mixed_ref=1 / me_range=16 / chroma_me=1 / trellis=1 / 8x8dct=1 / cqm=0 / deadzone=21,11 / fast_pskip=1 / chroma_qp_offset=-3 / threads=18 / lookahead_threads=3 / sliced_threads=0 / nr=0 / decimate=1 / interlaced=0 / bluray_compat=0 / constrained_intra=0 / bframes=3 / b_pyramid=2 / b_adapt=1 / b_bias=0 / direct=1 / weightb=1 / open_gop=0 / weightp=2 / keyint=250 / keyint_min=25 / scenecut=40 / intra_refresh=0 / rc_lookahead=40 / rc=abr / mbtree=1 / bitrate=1000 / ratetol=1.0 / qcomp=0.60 / qpmin=0 / qpmax=69 / qpstep=4 / ip_ratio=1.40 / aq=1:1.00
Default : No
Forced : No
Audio
ID : 2
Format : AC-3
Format/Info : Audio Coding 3
Codec ID : A_AC3
Duration : 1 h 52 min
Bit rate mode : Constant
Bit rate : 128 kb/s
Channel(s) : 2 channels
Channel positions : Front: L R
Sampling rate : 48.0 kHz
Frame rate : 31.250 FPS (1536 SPF)
Bit depth : 16 bits
Compression mode : Lossy
Stream size : 103 MiB (11%)
Language : English
Service kind : Complete Main
Default : No
Forced : No




TRT Gunduz Sineması Disi Kartal-Johnny Guitar 1954 HDTvRip 720p AC3 by TheWelleTy TORK

Genişletmek için Tıkla!
15-04-2018 22:06 , TheWelleTy Tarafından Yüklendi.
Kaynaklar: 1 / İndirilen: 0 / Boyut: 852.95 MB / Tamamlandı: 21
Torrenti İndir  Torrenti Şikayet Et Torrent Tanımı Tanıtım Videosu
IMDB Puanı: 7.7 7.7/10 Kategori: Drama | Western
Kategori: Yabancı Filmler > 720p
http://www.imdb.com/title/tt0047136/

TRT Gunduz Sineması Disi Kartal-Johnny Guitar 1954 HDTvRip 720p AC3 by TheWelleTy TORK





Genişlet Kod:
General
Unique ID                   : 170652943399331169275936055946175298971 (0x80628FB689BBEAE0A7443AAFBCB7BD9B)
Complete name               : D:\TORK\TRT.Gunduz.Sinemasi.Disi.Kartal.1954.HDTvRip.720p.AC3.by.TheWelleTy.TORK.mkv
Format                      : Matroska
Format version              : Version 2
File size                   : 853 MiB
Duration                    : 1 h 45 min
Overall bit rate            : 1 134 kb/s
Encoded date                : UTC 2018-04-15 19:58:51
Writing application         : mkvmerge v3.3.0 ('Language') built on Mar 24 2010 14:59:24
Writing library             : libebml v0.8.0 + libmatroska v0.9.0

Video
ID                          : 1
Format                      : AVC
Format/Info                 : Advanced Video Codec
Format profile              : High@L3.1
Format settings             : CABAC / 4 Ref Frames
Format settings, CABAC      : Yes
Format settings, ReFrames   : 4 frames
Codec ID                    : V_MPEG4/ISO/AVC
Duration                    : 1 h 45 min
Bit rate                    : 1 001 kb/s
Width                       : 1 280 pixels
Height                      : 720 pixels
Display aspect ratio        : 16:9
Frame rate mode             : Constant
Frame rate                  : 25.000 FPS
Color space                 : YUV
Chroma subsampling          : 4:2:0
Bit depth                   : 8 bits
Scan type                   : Progressive
Bits/(Pixel*Frame)          : 0.043
Stream size                 : 740 MiB (87%)
Writing library             : x264 core 128 r2216 198a7ea
Encoding settings           : cabac=1 / ref=3 / deblock=1:-1:-1 / analyse=0x3:0x113 / me=hex / subme=7 / psy=1 / psy_rd=1.00:0.15 / mixed_ref=1 / me_range=16 / chroma_me=1 / trellis=1 / 8x8dct=1 / cqm=0 / deadzone=21,11 / fast_pskip=1 / chroma_qp_offset=-3 / threads=18 / lookahead_threads=3 / sliced_threads=0 / nr=0 / decimate=1 / interlaced=0 / bluray_compat=0 / constrained_intra=0 / bframes=3 / b_pyramid=2 / b_adapt=1 / b_bias=0 / direct=1 / weightb=1 / open_gop=0 / weightp=2 / keyint=250 / keyint_min=25 / scenecut=40 / intra_refresh=0 / rc_lookahead=40 / rc=abr / mbtree=1 / bitrate=1001 / ratetol=1.0 / qcomp=0.60 / qpmin=0 / qpmax=69 / qpstep=4 / ip_ratio=1.40 / aq=1:1.00
Default                     : No
Forced                      : No

Audio
ID                          : 2
Format                      : AC-3
Format/Info                 : Audio Coding 3
Codec ID                    : A_AC3
Duration                    : 1 h 45 min
Bit rate mode               : Constant
Bit rate                    : 128 kb/s
Channel(s)                  : 2 channels
Channel positions           : Front: L R
Sampling rate               : 48.0 kHz
Frame rate                  : 31.250 FPS (1536 SPF)
Bit depth                   : 16 bits
Compression mode            : Lossy
Stream size                 : 96.3 MiB (11%)
Language                    : English
Service kind                : Complete Main
Default                     : No
Forced                      : No




TRT Gunduz Sineması Kanunsuz Silahsor-Cat Ballou 1965 HDTvRip 720p AC3 by TheWelleTy TORK

Genişletmek için Tıkla!
13-04-2018 20:34 , TheWelleTy Tarafından Yüklendi.
Kaynaklar: 1 / İndirilen: 0 / Boyut: 747.99 MB / Tamamlandı: 30
Torrenti İndir  Torrenti Şikayet Et Torrent Tanımı Tanıtım Videosu
IMDB Puanı: 6.9 6.9/10 Kategori: Western
Kategori: Yabancı Filmler > 720p
http://www.imdb.com/title/tt0059017/

TRT Gunduz Sineması Kanunsuz Silahsor-Cat Ballou 1965 HDTvRip 720p AC3 by TheWelleTy TORK





Genişlet Kod:
General
Unique ID                   : 191324545561819713902697434422527998339 (0x8FEFC4633F0FAEF085BA88FF11E13983)
Complete name               : D:\TORK\TRT.Gunduz.Sinemasi.Kanunsuz.Silahsor.1965.HDTvRip.720p.AC3.by.TheWelleTy.TORK.mkv
Format                      : Matroska
Format version              : Version 2
File size                   : 748 MiB
Duration                    : 1 h 32 min
Overall bit rate            : 1 132 kb/s
Encoded date                : UTC 2018-04-13 18:30:07
Writing application         : mkvmerge v3.3.0 ('Language') built on Mar 24 2010 14:59:24
Writing library             : libebml v0.8.0 + libmatroska v0.9.0

Video
ID                          : 1
Format                      : AVC
Format/Info                 : Advanced Video Codec
Format profile              : High@L3.1
Format settings             : CABAC / 4 Ref Frames
Format settings, CABAC      : Yes
Format settings, ReFrames   : 4 frames
Codec ID                    : V_MPEG4/ISO/AVC
Duration                    : 1 h 32 min
Bit rate                    : 999 kb/s
Width                       : 1 280 pixels
Height                      : 720 pixels
Display aspect ratio        : 16:9
Frame rate mode             : Constant
Frame rate                  : 25.000 FPS
Color space                 : YUV
Chroma subsampling          : 4:2:0
Bit depth                   : 8 bits
Scan type                   : Progressive
Bits/(Pixel*Frame)          : 0.043
Stream size                 : 649 MiB (87%)
Writing library             : x264 core 133 r2334 a3ac64b
Encoding settings           : cabac=1 / ref=3 / deblock=1:-1:-1 / analyse=0x3:0x113 / me=hex / subme=7 / psy=1 / psy_rd=1.00:0.15 / mixed_ref=1 / me_range=16 / chroma_me=1 / trellis=1 / 8x8dct=1 / cqm=0 / deadzone=21,11 / fast_pskip=1 / chroma_qp_offset=-3 / threads=18 / lookahead_threads=3 / sliced_threads=0 / nr=0 / decimate=1 / interlaced=0 / bluray_compat=0 / constrained_intra=0 / bframes=3 / b_pyramid=2 / b_adapt=1 / b_bias=0 / direct=1 / weightb=1 / open_gop=0 / weightp=2 / keyint=250 / keyint_min=25 / scenecut=40 / intra_refresh=0 / rc_lookahead=40 / rc=abr / mbtree=1 / bitrate=999 / ratetol=1.0 / qcomp=0.60 / qpmin=0 / qpmax=69 / qpstep=4 / ip_ratio=1.40 / aq=1:1.00
Default                     : No
Forced                      : No

Audio
ID                          : 2
Format                      : AC-3
Format/Info                 : Audio Coding 3
Codec ID                    : A_AC3
Duration                    : 1 h 32 min
Bit rate mode               : Constant
Bit rate                    : 128 kb/s
Channel(s)                  : 2 channels
Channel positions           : Front: L R
Sampling rate               : 48.0 kHz
Frame rate                  : 31.250 FPS (1536 SPF)
Bit depth                   : 16 bits
Compression mode            : Lossy
Stream size                 : 84.6 MiB (11%)
Language                    : English
Service kind                : Complete Main
Default                     : No
Forced                      : No




TRT Gunduz Sineması Son Komanci-Last of the Comanches 1953 HDTvRip 720p AC3 by TheWelleTy TORK

Genişletmek için Tıkla!
01-04-2018 19:15 , TheWelleTy Tarafından Yüklendi.
Kaynaklar: 1 / İndirilen: 0 / Boyut: 656.8 MB / Tamamlandı: 21
Torrenti İndir  Torrenti Şikayet Et Torrent Tanımı Tanıtım Videosu
IMDB Puanı: 6.4 6.4/10 Kategori: Western
Kategori: Yabancı Filmler > 720p
http://www.imdb.com/title/tt0044828/

TRT Gunduz Sineması Son Komanci-Last of the Comanches 1953 HDTvRip 720p AC3 by TheWelleTy TORK





Genişlet Kod:
General
Unique ID : 251367599525388940777606902161405966998 (0xBD1BA381AD635F678FF57C52EE08FA96)
Complete name : D:\TORK\TRT.Gunduz.Sinemasi.Son.Komanci.1953.HDTvRip.720p.AC3.by.TheWelleTy.TORK.mkv
Format : Matroska
Format version : Version 2
File size : 657 MiB
Duration : 1 h 21 min
Overall bit rate : 1 133 kb/s
Encoded date : UTC 2018-04-01 17:01:23
Writing application : mkvmerge v3.3.0 ('Language') built on Mar 24 2010 14:59:24
Writing library : libebml v0.8.0 + libmatroska v0.9.0
Video
ID : 1
Format : AVC
Format/Info : Advanced Video Codec
Format profile : High@L3.1
Format settings : CABAC / 4 Ref Frames
Format settings, CABAC : Yes
Format settings, ReFrames : 4 frames
Codec ID : V_MPEG4/ISO/AVC
Duration : 1 h 21 min
Bit rate : 1 001 kb/s
Width : 1 280 pixels
Height : 720 pixels
Display aspect ratio : 16:9
Frame rate mode : Constant
Frame rate : 25.000 FPS
Color space : YUV
Chroma subsampling : 4:2:0
Bit depth : 8 bits
Scan type : Progressive
Bits/(Pixel*Frame) : 0.043
Stream size : 570 MiB (87%)
Writing library : x264 core 133 r2334 a3ac64b
Encoding settings : cabac=1 / ref=3 / deblock=1:-1:-1 / analyse=0x3:0x113 / me=hex / subme=7 / psy=1 / psy_rd=1.00:0.15 / mixed_ref=1 / me_range=16 / chroma_me=1 / trellis=1 / 8x8dct=1 / cqm=0 / deadzone=21,11 / fast_pskip=1 / chroma_qp_offset=-3 / threads=18 / lookahead_threads=3 / sliced_threads=0 / nr=0 / decimate=1 / interlaced=0 / bluray_compat=0 / constrained_intra=0 / bframes=3 / b_pyramid=2 / b_adapt=1 / b_bias=0 / direct=1 / weightb=1 / open_gop=0 / weightp=2 / keyint=250 / keyint_min=25 / scenecut=40 / intra_refresh=0 / rc_lookahead=40 / rc=abr / mbtree=1 / bitrate=1001 / ratetol=1.0 / qcomp=0.60 / qpmin=0 / qpmax=69 / qpstep=4 / ip_ratio=1.40 / aq=1:1.00
Default : No
Forced : No
Audio
ID : 2
Format : AC-3
Format/Info : Audio Coding 3
Codec ID : A_AC3
Duration : 1 h 21 min
Bit rate mode : Constant
Bit rate : 128 kb/s
Channel(s) : 2 channels
Channel positions : Front: L R
Sampling rate : 48.0 kHz
Frame rate : 31.250 FPS (1536 SPF)
Bit depth : 16 bits
Compression mode : Lossy
Stream size : 74.2 MiB (11%)
Language : English
Service kind : Complete Main
Default : No
Forced : No









TRT Gunduz Sineması Kanli mücadele-Two Rode Together 1961 HDTvRip 720p AC3 by TheWelleTy TORK

Genişletmek için Tıkla!
01-04-2018 18:58 , TheWelleTy Tarafından Yüklendi.
Kaynaklar: 1 / İndirilen: 0 / Boyut: 842.98 MB / Tamamlandı: 23
Torrenti İndir  Torrenti Şikayet Et Torrent Tanımı Tanıtım Videosu
IMDB Puanı: 6.8 6.8/10 Kategori: Western
Kategori: Yabancı Filmler > 720p
http://www.imdb.com/title/tt0055558/

TRT Gunduz Sineması Kanli mücadele-Two Rode Together 1961 HDTvRip 720p AC3 by TheWelleTy TORK





Genişlet Kod:
General
Unique ID : 203411457726057707602349415334667200604 (0x99079F2AC920B55BAFBA3ADFC3F1A85C)
Complete name : D:\TORK\TRT.Gunduz.Sinemasi.Kanli.Mucadele.1961.HDTvRip.720p.AC3.by.TheWelleTy.TORK.mkv
Format : Matroska
Format version : Version 2
File size : 843 MiB
Duration : 1 h 44 min
Overall bit rate : 1 127 kb/s
Encoded date : UTC 2018-04-01 16:55:16
Writing application : mkvmerge v3.3.0 ('Language') built on Mar 24 2010 14:59:24
Writing library : libebml v0.8.0 + libmatroska v0.9.0
Video
ID : 1
Format : AVC
Format/Info : Advanced Video Codec
Format profile : High@L3.1
Format settings : CABAC / 4 Ref Frames
Format settings, CABAC : Yes
Format settings, ReFrames : 4 frames
Codec ID : V_MPEG4/ISO/AVC
Duration : 1 h 44 min
Bit rate : 1 000 kb/s
Width : 1 280 pixels
Height : 720 pixels
Display aspect ratio : 16:9
Frame rate mode : Constant
Frame rate : 25.000 FPS
Color space : YUV
Chroma subsampling : 4:2:0
Bit depth : 8 bits
Scan type : Progressive
Bits/(Pixel*Frame) : 0.043
Stream size : 730 MiB (87%)
Writing library : x264 core 128 r2216 198a7ea
Encoding settings : cabac=1 / ref=3 / deblock=1:-1:-1 / analyse=0x3:0x113 / me=hex / subme=7 / psy=1 / psy_rd=1.00:0.15 / mixed_ref=1 / me_range=16 / chroma_me=1 / trellis=1 / 8x8dct=1 / cqm=0 / deadzone=21,11 / fast_pskip=1 / chroma_qp_offset=-3 / threads=18 / lookahead_threads=3 / sliced_threads=0 / nr=0 / decimate=1 / interlaced=0 / bluray_compat=0 / constrained_intra=0 / bframes=3 / b_pyramid=2 / b_adapt=1 / b_bias=0 / direct=1 / weightb=1 / open_gop=0 / weightp=2 / keyint=250 / keyint_min=25 / scenecut=40 / intra_refresh=0 / rc_lookahead=40 / rc=abr / mbtree=1 / bitrate=1000 / ratetol=1.0 / qcomp=0.60 / qpmin=0 / qpmax=69 / qpstep=4 / ip_ratio=1.40 / aq=1:1.00
Default : No
Forced : No
Audio
ID : 2
Format : AC-3
Format/Info : Audio Coding 3
Codec ID : A_AC3
Duration : 1 h 44 min
Bit rate mode : Constant
Bit rate : 128 kb/s
Channel(s) : 2 channels
Channel positions : Front: L R
Sampling rate : 48.0 kHz
Frame rate : 31.250 FPS (1536 SPF)
Bit depth : 16 bits
Compression mode : Lossy
Stream size : 95.7 MiB (11%)
Language : English
Service kind : Complete Main
Default : No
Forced : No









TRT Gunduz Sineması Kovboy-Cowboy 1958 HDTvRip 720p AC3 by TheWelleTy TORK

Genişletmek için Tıkla!
18-03-2018 19:02 , TheWelleTy Tarafından Yüklendi.
Kaynaklar: 2 / İndirilen: 0 / Boyut: 709.99 MB / Tamamlandı: 21
Torrenti İndir  Torrenti Şikayet Et Torrent Tanımı Tanıtım Videosu
IMDB Puanı: 6.8 6.8/10 Kategori: Western
Kategori: Yabancı Filmler > 720p
http://www.imdb.com/title/tt0051496/

TRT Gunduz Sineması Kovboy-Cowboy 1958 HDTvRip 720p AC3 by TheWelleTy TORK





Genişlet Kod:
General
Unique ID : 254526409786120709734807781379605250438 (0xBF7C00E06CAE4431974AB30E1563C186)
Complete name : D:\TORK\TRT.Gunduz.Sinemasi.Kovboy.1958.HDTvRip.720p.AC3.by.TheWelleTy.TORK.mkv
Format : Matroska
Format version : Version 2
File size : 710 MiB
Duration : 1 h 28 min
Overall bit rate : 1 126 kb/s
Encoded date : UTC 2018-03-18 16:54:14
Writing application : mkvmerge v3.3.0 ('Language') built on Mar 24 2010 14:59:24
Writing library : libebml v0.8.0 + libmatroska v0.9.0
Video
ID : 1
Format : AVC
Format/Info : Advanced Video Codec
Format profile : High@L3.1
Format settings : CABAC / 4 Ref Frames
Format settings, CABAC : Yes
Format settings, ReFrames : 4 frames
Codec ID : V_MPEG4/ISO/AVC
Duration : 1 h 28 min
Bit rate : 999 kb/s
Width : 1 280 pixels
Height : 720 pixels
Display aspect ratio : 16:9
Frame rate mode : Constant
Frame rate : 25.000 FPS
Color space : YUV
Chroma subsampling : 4:2:0
Bit depth : 8 bits
Scan type : Progressive
Bits/(Pixel*Frame) : 0.043
Stream size : 615 MiB (87%)
Writing library : x264 core 133 r2334 a3ac64b
Encoding settings : cabac=1 / ref=3 / deblock=1:-1:-1 / analyse=0x3:0x113 / me=hex / subme=7 / psy=1 / psy_rd=1.00:0.15 / mixed_ref=1 / me_range=16 / chroma_me=1 / trellis=1 / 8x8dct=1 / cqm=0 / deadzone=21,11 / fast_pskip=1 / chroma_qp_offset=-3 / threads=18 / lookahead_threads=3 / sliced_threads=0 / nr=0 / decimate=1 / interlaced=0 / bluray_compat=0 / constrained_intra=0 / bframes=3 / b_pyramid=2 / b_adapt=1 / b_bias=0 / direct=1 / weightb=1 / open_gop=0 / weightp=2 / keyint=250 / keyint_min=25 / scenecut=40 / intra_refresh=0 / rc_lookahead=40 / rc=abr / mbtree=1 / bitrate=999 / ratetol=1.0 / qcomp=0.60 / qpmin=0 / qpmax=69 / qpstep=4 / ip_ratio=1.40 / aq=1:1.00
Default : No
Forced : No
Audio
ID : 2
Format : AC-3
Format/Info : Audio Coding 3
Codec ID : A_AC3
Duration : 1 h 28 min
Bit rate mode : Constant
Bit rate : 128 kb/s
Channel(s) : 2 channels
Channel positions : Front: L R
Sampling rate : 48.0 kHz
Frame rate : 31.250 FPS (1536 SPF)
Bit depth : 16 bits
Compression mode : Lossy
Stream size : 80.7 MiB (11%)
Language : English
Service kind : Complete Main
Default : No
Forced : No




TRT Gunduz Sineması Silahsorun Sonu-Gunman's Walk 1958 HDTvRip 720p AC3 by TheWelleTy TORK

Genişletmek için Tıkla!
11-03-2018 19:04 , TheWelleTy Tarafından Yüklendi.
Kaynaklar: 1 / İndirilen: 0 / Boyut: 707.06 MB / Tamamlandı: 25
Torrenti İndir  Torrenti Şikayet Et Torrent Tanımı Tanıtım Videosu
IMDB Puanı: 7.0 7.0/10 Kategori: Western
Kategori: Yabancı Filmler > 720p
http://www.imdb.com/title/tt0051690/

TRT Gunduz Sineması Silahsorun Sonu-Gunman's Walk 1958 HDTvRip 720p AC3 by TheWelleTy TORK





Genişlet Kod:
General
Unique ID : 239925924236403600767973689883870871987 (0xB4800D5C7743A3A19182E89A001FC1B3)
Complete name : D:\TORK\TRT.Gunduz.Sinemasi.Silahsorun.Sonu.1958.HDTvRip.720p.AC3.by.TheWelleTy.TORK.mkv
Format : Matroska
Format version : Version 2
File size : 707 MiB
Duration : 1 h 27 min
Overall bit rate : 1 130 kb/s
Encoded date : UTC 2018-03-11 17:02:43
Writing application : mkvmerge v3.3.0 ('Language') built on Mar 24 2010 14:59:24
Writing library : libebml v0.8.0 + libmatroska v0.9.0
Video
ID : 1
Format : AVC
Format/Info : Advanced Video Codec
Format profile : High@L3.1
Format settings : CABAC / 4 Ref Frames
Format settings, CABAC : Yes
Format settings, ReFrames : 4 frames
Codec ID : V_MPEG4/ISO/AVC
Duration : 1 h 27 min
Bit rate : 1 001 kb/s
Width : 1 280 pixels
Height : 720 pixels
Display aspect ratio : 16:9
Frame rate mode : Constant
Frame rate : 25.000 FPS
Color space : YUV
Chroma subsampling : 4:2:0
Bit depth : 8 bits
Scan type : Progressive
Bits/(Pixel*Frame) : 0.043
Stream size : 613 MiB (87%)
Writing library : x264 core 133 r2334 a3ac64b
Encoding settings : cabac=1 / ref=3 / deblock=1:-1:-1 / analyse=0x3:0x113 / me=hex / subme=7 / psy=1 / psy_rd=1.00:0.15 / mixed_ref=1 / me_range=16 / chroma_me=1 / trellis=1 / 8x8dct=1 / cqm=0 / deadzone=21,11 / fast_pskip=1 / chroma_qp_offset=-3 / threads=18 / lookahead_threads=3 / sliced_threads=0 / nr=0 / decimate=1 / interlaced=0 / bluray_compat=0 / constrained_intra=0 / bframes=3 / b_pyramid=2 / b_adapt=1 / b_bias=0 / direct=1 / weightb=1 / open_gop=0 / weightp=2 / keyint=250 / keyint_min=25 / scenecut=40 / intra_refresh=0 / rc_lookahead=40 / rc=abr / mbtree=1 / bitrate=1001 / ratetol=1.0 / qcomp=0.60 / qpmin=0 / qpmax=69 / qpstep=4 / ip_ratio=1.40 / aq=1:1.00
Default : No
Forced : No
Audio
ID : 2
Format : AC-3
Format/Info : Audio Coding 3
Codec ID : A_AC3
Duration : 1 h 27 min
Bit rate mode : Constant
Bit rate : 128 kb/s
Channel(s) : 2 channels
Channel positions : Front: L R
Sampling rate : 48.0 kHz
Frame rate : 31.250 FPS (1536 SPF)
Bit depth : 16 bits
Compression mode : Lossy
Stream size : 80.1 MiB (11%)
Language : English
Service kind : Complete Main
Default : No
Forced : No




TRT Gunduz Sundown'da Karar Gunu-Decision at Sundown 1957 HDTvRip 720p AC3 by TheWelleTy TORK

Genişletmek için Tıkla!
06-03-2018 23:12 , TheWelleTy Tarafından Yüklendi.
Kaynaklar: 1 / İndirilen: 0 / Boyut: 597.69 MB / Tamamlandı: 19
Torrenti İndir  Torrenti Şikayet Et Torrent Tanımı Tanıtım Videosu
IMDB Puanı: 6.9 6.9/10 Kategori: Western
Kategori: Yabancı Filmler > 720p
http://www.imdb.com/title/tt0050296/

TRT Gunduz Sundown'da Karar Gunu-Decision at Sundown 1957 HDTvRip 720p AC3 by TheWelleTy TORK





Genişlet Kod:
General
Unique ID : 246833761272976520813189461658587752624 (0xB9B27405B5E484C4924F29C54841E8B0)
Complete name : D:\TORK\TRT.Gunduz.Sinemasi.Sundownda.Karar.Gunu.1957.HDTvRip.720p.AC3.by.TheWelleTy.TORK.mkv
Format : Matroska
Format version : Version 2
File size : 598 MiB
Duration : 1 h 14 min
Overall bit rate : 1 125 kb/s
Encoded date : UTC 2018-03-06 21:06:51
Writing application : mkvmerge v3.3.0 ('Language') built on Mar 24 2010 14:59:24
Writing library : libebml v0.8.0 + libmatroska v0.9.0
Video
ID : 1
Format : AVC
Format/Info : Advanced Video Codec
Format profile : High@L3.1
Format settings : CABAC / 4 Ref Frames
Format settings, CABAC : Yes
Format settings, ReFrames : 4 frames
Codec ID : V_MPEG4/ISO/AVC
Duration : 1 h 14 min
Bit rate : 1 000 kb/s
Width : 1 280 pixels
Height : 720 pixels
Display aspect ratio : 16:9
Frame rate mode : Constant
Frame rate : 25.000 FPS
Color space : YUV
Chroma subsampling : 4:2:0
Bit depth : 8 bits
Scan type : Progressive
Bits/(Pixel*Frame) : 0.043
Stream size : 518 MiB (87%)
Writing library : x264 core 128 r2216 198a7ea
Encoding settings : cabac=1 / ref=3 / deblock=1:-1:-1 / analyse=0x3:0x113 / me=hex / subme=7 / psy=1 / psy_rd=1.00:0.15 / mixed_ref=1 / me_range=16 / chroma_me=1 / trellis=1 / 8x8dct=1 / cqm=0 / deadzone=21,11 / fast_pskip=1 / chroma_qp_offset=-3 / threads=18 / lookahead_threads=3 / sliced_threads=0 / nr=0 / decimate=1 / interlaced=0 / bluray_compat=0 / constrained_intra=0 / bframes=3 / b_pyramid=2 / b_adapt=1 / b_bias=0 / direct=1 / weightb=1 / open_gop=0 / weightp=2 / keyint=250 / keyint_min=25 / scenecut=40 / intra_refresh=0 / rc_lookahead=40 / rc=abr / mbtree=1 / bitrate=1000 / ratetol=1.0 / qcomp=0.60 / qpmin=0 / qpmax=69 / qpstep=4 / ip_ratio=1.40 / aq=1:1.00
Default : No
Forced : No
Audio
ID : 2
Format : AC-3
Format/Info : Audio Coding 3
Codec ID : A_AC3
Duration : 1 h 14 min
Bit rate mode : Constant
Bit rate : 128 kb/s
Channel(s) : 2 channels
Channel positions : Front: L R
Sampling rate : 48.0 kHz
Frame rate : 31.250 FPS (1536 SPF)
Bit depth : 16 bits
Compression mode : Lossy
Stream size : 68.0 MiB (11%)
Language : English
Service kind : Complete Main
Default : No
Forced : No




TRT Gunduz Yedinci Suvari Alayi-7th Cavalry1956 HDTvRip 720p AC3 by TheWelleTy TORK

Genişletmek için Tıkla!
28-02-2018 15:06 , TheWelleTy Tarafından Yüklendi.
Kaynaklar: 1 / İndirilen: 0 / Boyut: 591.77 MB / Tamamlandı: 24
Torrenti İndir  Torrenti Şikayet Et Torrent Tanımı Tanıtım Videosu
IMDB Puanı: 5.9 5.9/10 Kategori: Western
Kategori: Yabancı Filmler > 720p
http://www.imdb.com/title/tt0049745/

TRT Gunduz Yedinci Suvari Alayi-7th Cavalry1956 HDTvRip 720p AC3 by TheWelleTy TORK





Genişlet Kod:
General
Unique ID : 173258267468281983049081197291625140398 (0x8258541B6491CC52BAA37511278E50AE)
Complete name : D:\TORK\TRT.Gunduz.Sinemasi.Yedinci.Suvari.Alayi.1956.HDTvRip.720p.AC3.by.TheWelleTy.TORK.mkv
Format : Matroska
Format version : Version 2
File size : 592 MiB
Duration : 1 h 13 min
Overall bit rate : 1 131 kb/s
Encoded date : UTC 2018-02-28 13:04:15
Writing application : mkvmerge v3.3.0 ('Language') built on Mar 24 2010 14:59:24
Writing library : libebml v0.8.0 + libmatroska v0.9.0
Video
ID : 1
Format : AVC
Format/Info : Advanced Video Codec
Format profile : High@L3.1
Format settings : CABAC / 4 Ref Frames
Format settings, CABAC : Yes
Format settings, ReFrames : 4 frames
Codec ID : V_MPEG4/ISO/AVC
Duration : 1 h 13 min
Bit rate : 1 000 kb/s
Width : 1 280 pixels
Height : 720 pixels
Display aspect ratio : 16:9
Frame rate mode : Constant
Frame rate : 25.000 FPS
Color space : YUV
Chroma subsampling : 4:2:0
Bit depth : 8 bits
Scan type : Progressive
Bits/(Pixel*Frame) : 0.043
Stream size : 513 MiB (87%)
Writing library : x264 core 128 r2216 198a7ea
Encoding settings : cabac=1 / ref=3 / deblock=1:-1:-1 / analyse=0x3:0x113 / me=hex / subme=7 / psy=1 / psy_rd=1.00:0.15 / mixed_ref=1 / me_range=16 / chroma_me=1 / trellis=1 / 8x8dct=1 / cqm=0 / deadzone=21,11 / fast_pskip=1 / chroma_qp_offset=-3 / threads=18 / lookahead_threads=3 / sliced_threads=0 / nr=0 / decimate=1 / interlaced=0 / bluray_compat=0 / constrained_intra=0 / bframes=3 / b_pyramid=2 / b_adapt=1 / b_bias=0 / direct=1 / weightb=1 / open_gop=0 / weightp=2 / keyint=250 / keyint_min=25 / scenecut=40 / intra_refresh=0 / rc_lookahead=40 / rc=abr / mbtree=1 / bitrate=1000 / ratetol=1.0 / qcomp=0.60 / qpmin=0 / qpmax=69 / qpstep=4 / ip_ratio=1.40 / aq=1:1.00
Default : No
Forced : No
Audio
ID : 2
Format : AC-3
Format/Info : Audio Coding 3
Codec ID : A_AC3
Duration : 1 h 13 min
Bit rate mode : Constant
Bit rate : 128 kb/s
Channel(s) : 2 channels
Channel positions : Front: L R
Sampling rate : 48.0 kHz
Frame rate : 31.250 FPS (1536 SPF)
Bit depth : 16 bits
Compression mode : Lossy
Stream size : 67.0 MiB (11%)
Language : English
Service kind : Complete Main
Default : No
Forced : No




TRT Gunduz Hayalet Binicileri-The Shadow Riders 1982 HDTvRip 720p AC3 by TheWelleTy TORK

Genişletmek için Tıkla!
19-02-2018 21:45 , TheWelleTy Tarafından Yüklendi.
Kaynaklar: 1 / İndirilen: 0 / Boyut: 736.56 MB / Tamamlandı: 23
Torrenti İndir  Torrenti Şikayet Et Torrent Tanımı Tanıtım Videosu
IMDB Puanı: 6.8 6.8/10 Kategori: Western
Kategori: Yabancı Filmler > 720p
http://www.imdb.com/title/tt0084666/

TRT Gunduz Hayalet Binicileri-The Shadow Riders 1982 HDTvRip 720p AC3 by TheWelleTy TORK





Genişlet Kod:
General
Unique ID : 253364844203775471971720794072712386059 (0xBE9C4B4598A96B15BAF291DDC3E6960B)
Complete name : D:\TORK\TRT.Gunduz.Sinemasi.Hayalet.Biniciler.1982.HDTvRip.720p.AC3.by.TheWelleTy.TORK.mkv
Format : Matroska
Format version : Version 2
File size : 737 MiB
Duration : 1 h 31 min
Overall bit rate : 1 130 kb/s
Encoded date : UTC 2018-02-19 19:39:21
Writing application : mkvmerge v3.3.0 ('Language') built on Mar 24 2010 14:59:24
Writing library : libebml v0.8.0 + libmatroska v0.9.0
Video
ID : 1
Format : AVC
Format/Info : Advanced Video Codec
Format profile : High@L3.1
Format settings : CABAC / 4 Ref Frames
Format settings, CABAC : Yes
Format settings, ReFrames : 4 frames
Codec ID : V_MPEG4/ISO/AVC
Duration : 1 h 31 min
Bit rate : 999 kb/s
Width : 1 280 pixels
Height : 720 pixels
Display aspect ratio : 16:9
Frame rate mode : Constant
Frame rate : 25.000 FPS
Color space : YUV
Chroma subsampling : 4:2:0
Bit depth : 8 bits
Scan type : Progressive
Bits/(Pixel*Frame) : 0.043
Stream size : 638 MiB (87%)
Writing library : x264 core 128 r2216 198a7ea
Encoding settings : cabac=1 / ref=3 / deblock=1:-1:-1 / analyse=0x3:0x113 / me=hex / subme=7 / psy=1 / psy_rd=1.00:0.15 / mixed_ref=1 / me_range=16 / chroma_me=1 / trellis=1 / 8x8dct=1 / cqm=0 / deadzone=21,11 / fast_pskip=1 / chroma_qp_offset=-3 / threads=18 / lookahead_threads=3 / sliced_threads=0 / nr=0 / decimate=1 / interlaced=0 / bluray_compat=0 / constrained_intra=0 / bframes=3 / b_pyramid=2 / b_adapt=1 / b_bias=0 / direct=1 / weightb=1 / open_gop=0 / weightp=2 / keyint=250 / keyint_min=25 / scenecut=40 / intra_refresh=0 / rc_lookahead=40 / rc=abr / mbtree=1 / bitrate=999 / ratetol=1.0 / qcomp=0.60 / qpmin=0 / qpmax=69 / qpstep=4 / ip_ratio=1.40 / aq=1:1.00
Default : No
Forced : No
Audio
ID : 2
Format : AC-3
Format/Info : Audio Coding 3
Codec ID : A_AC3
Duration : 1 h 31 min
Bit rate mode : Constant
Bit rate : 128 kb/s
Channel(s) : 2 channels
Channel positions : Front: L R
Sampling rate : 48.0 kHz
Frame rate : 31.250 FPS (1536 SPF)
Bit depth : 16 bits
Compression mode : Lossy
Stream size : 83.5 MiB (11%)
Language : English
Service kind : Complete Main
Default : No
Forced : No



TRT Gunduz Sinemasi Colorado 1982 HDTvRip 720p AC3 by TheWelleTy TORK

Genişletmek için Tıkla!
18-02-2018 14:49 , TheWelleTy Tarafından Yüklendi.
Kaynaklar: 1 / İndirilen: 0 / Boyut: 691.2 MB / Tamamlandı: 22
Torrenti İndir  Torrenti Şikayet Et Torrent Tanımı Tanıtım Videosu
IMDB Puanı: 6.8 6.8/10 Kategori: Aksiyon | Drama | Komedi | Western
Kategori: Yabancı Filmler > 720p
http://www.imdb.com/title/tt0084666/

TRT Gunduz Sinemasi Colorado 1982 HDTvRip 720p AC3 by TheWelleTy TORK





Genişlet Kod:
General
Unique ID : 187030049099248348658298979056325970163 (0x8CB4AD5D601B1749A7238610F01F48F3)
Complete name : D:\TORK\TRT.Gunduz.Sinemasi.Colorado.1940.HDTvRip.720p.AC3.by.TheWelleTy.TORK.mkv
Format : Matroska
Format version : Version 2
File size : 691 MiB
Duration : 1 h 25 min
Overall bit rate : 1 125 kb/s
Encoded date : UTC 2018-02-18 12:46:13
Writing application : mkvmerge v3.3.0 ('Language') built on Mar 24 2010 14:59:24
Writing library : libebml v0.8.0 + libmatroska v0.9.0
Video
ID : 1
Format : AVC
Format/Info : Advanced Video Codec
Format profile : High@L3.1
Format settings : CABAC / 4 Ref Frames
Format settings, CABAC : Yes
Format settings, ReFrames : 4 frames
Codec ID : V_MPEG4/ISO/AVC
Duration : 1 h 25 min
Bit rate : 1 000 kb/s
Width : 1 280 pixels
Height : 720 pixels
Display aspect ratio : 16:9
Frame rate mode : Constant
Frame rate : 25.000 FPS
Color space : YUV
Chroma subsampling : 4:2:0
Bit depth : 8 bits
Scan type : Progressive
Bits/(Pixel*Frame) : 0.043
Stream size : 599 MiB (87%)
Writing library : x264 core 128 r2216 198a7ea
Encoding settings : cabac=1 / ref=3 / deblock=1:-1:-1 / analyse=0x3:0x113 / me=hex / subme=7 / psy=1 / psy_rd=1.00:0.15 / mixed_ref=1 / me_range=16 / chroma_me=1 / trellis=1 / 8x8dct=1 / cqm=0 / deadzone=21,11 / fast_pskip=1 / chroma_qp_offset=-3 / threads=18 / lookahead_threads=3 / sliced_threads=0 / nr=0 / decimate=1 / interlaced=0 / bluray_compat=0 / constrained_intra=0 / bframes=3 / b_pyramid=2 / b_adapt=1 / b_bias=0 / direct=1 / weightb=1 / open_gop=0 / weightp=2 / keyint=250 / keyint_min=25 / scenecut=40 / intra_refresh=0 / rc_lookahead=40 / rc=abr / mbtree=1 / bitrate=1000 / ratetol=1.0 / qcomp=0.60 / qpmin=0 / qpmax=69 / qpstep=4 / ip_ratio=1.40 / aq=1:1.00
Default : No
Forced : No
Audio
ID : 2
Format : AC-3
Format/Info : Audio Coding 3
Codec ID : A_AC3
Duration : 1 h 25 min
Bit rate mode : Constant
Bit rate : 128 kb/s
Channel(s) : 2 channels
Channel positions : Front: L R
Sampling rate : 48.0 kHz
Frame rate : 31.250 FPS (1536 SPF)
Bit depth : 16 bits
Compression mode : Lossy
Stream size : 78.7 MiB (11%)
Language : English
Service kind : Complete Main
Default : No
Forced : No




TRT Gunduz Sinemasi İntikam Otesi-Ride Beyond Vengeance 1966 HDTvRip 720p AC3 by TheWelleTy TORK

Genişletmek için Tıkla!
10-02-2018 23:29 , TheWelleTy Tarafından Yüklendi.
Kaynaklar: 1 / İndirilen: 0 / Boyut: 776.35 MB / Tamamlandı: 26
Torrenti İndir  Torrenti Şikayet Et Torrent Tanımı Tanıtım Videosu
IMDB Puanı: 6.3 6.3/10 Kategori: Aksiyon | Western
Kategori: Yabancı Filmler > 720p
http://www.imdb.com/title/tt0060899/

TRT Gunduz Sinemasi İntikam Otesi-Ride Beyond Vengeance 1966 HDTvRip 720p AC3 by TheWelleTy TORK





Genişlet Kod:
General
Unique ID : 184239114083059106718084716881687161521 (0x8A9B29A500BBFAC7A7226C0593292AB1)
Complete name : D:\TORK\TRT.Gunduz.Sinemasi.Intikamin.Otesi.1966.HDTvRip.720p.AC3.by.TheWelleTy.TORK.mkv
Format : Matroska
Format version : Version 2
File size : 776 MiB
Duration : 1 h 35 min
Overall bit rate : 1 131 kb/s
Encoded date : UTC 2018-02-10 21:21:18
Writing application : mkvmerge v3.3.0 ('Language') built on Mar 24 2010 14:59:24
Writing library : libebml v0.8.0 + libmatroska v0.9.0
Video
ID : 1
Format : AVC
Format/Info : Advanced Video Codec
Format profile : High@L3.1
Format settings : CABAC / 4 Ref Frames
Format settings, CABAC : Yes
Format settings, ReFrames : 4 frames
Codec ID : V_MPEG4/ISO/AVC
Duration : 1 h 35 min
Bit rate : 1 000 kb/s
Width : 1 280 pixels
Height : 720 pixels
Display aspect ratio : 16:9
Frame rate mode : Constant
Frame rate : 25.000 FPS
Color space : YUV
Chroma subsampling : 4:2:0
Bit depth : 8 bits
Scan type : Progressive
Bits/(Pixel*Frame) : 0.043
Stream size : 673 MiB (87%)
Writing library : x264 core 128 r2216 198a7ea
Encoding settings : cabac=1 / ref=3 / deblock=1:-1:-1 / analyse=0x3:0x113 / me=hex / subme=7 / psy=1 / psy_rd=1.00:0.15 / mixed_ref=1 / me_range=16 / chroma_me=1 / trellis=1 / 8x8dct=1 / cqm=0 / deadzone=21,11 / fast_pskip=1 / chroma_qp_offset=-3 / threads=18 / lookahead_threads=3 / sliced_threads=0 / nr=0 / decimate=1 / interlaced=0 / bluray_compat=0 / constrained_intra=0 / bframes=3 / b_pyramid=2 / b_adapt=1 / b_bias=0 / direct=1 / weightb=1 / open_gop=0 / weightp=2 / keyint=250 / keyint_min=25 / scenecut=40 / intra_refresh=0 / rc_lookahead=40 / rc=abr / mbtree=1 / bitrate=1000 / ratetol=1.0 / qcomp=0.60 / qpmin=0 / qpmax=69 / qpstep=4 / ip_ratio=1.40 / aq=1:1.00
Default : No
Forced : No
Audio
ID : 2
Format : AC-3
Format/Info : Audio Coding 3
Codec ID : A_AC3
Duration : 1 h 35 min
Bit rate mode : Constant
Bit rate : 128 kb/s
Channel(s) : 2 channels
Channel positions : Front: L R
Sampling rate : 48.0 kHz
Frame rate : 31.250 FPS (1536 SPF)
Bit depth : 16 bits
Compression mode : Lossy
Stream size : 87.8 MiB (11%)
Language : English
Service kind : Complete Main
Default : No
Forced : No




TRT Gunduz Sinemasi Uc Sert Adam-Three Violent People 1956 HDTvRip 720p AC3 by TheWelleTy TORK

Genişletmek için Tıkla!
27-01-2018 13:58 , TheWelleTy Tarafından Yüklendi.
Kaynaklar: 1 / İndirilen: 0 / Boyut: 773.3 MB / Tamamlandı: 23
Torrenti İndir  Torrenti Şikayet Et Torrent Tanımı Tanıtım Videosu
IMDB Puanı: 6.4 6.4/10 Kategori: Western
Kategori: Yabancı Filmler > 720p
http://www.imdb.com/title/tt0049849/

TRT Gunduz Sinemasi Uc Sert Adam-Three Violent People 1956 HDTvRip 720p AC3 by TheWelleTy TORK





Genişlet Kod:
General
Unique ID : 207746384606920075692479228772645897296 (0x9C4A7F90474D071697E8253C12E48450)
Complete name : D:\TORK\TRT.Gunduz.Sinemasi.Uc.Sert.Adam.1956.HDTvRip.720p.AC3.by.TheWelleTy.TORK.mkv
Format : Matroska
Format version : Version 2
File size : 773 MiB
Duration : 1 h 35 min
Overall bit rate : 1 129 kb/s
Encoded date : UTC 2018-01-27 11:27:58
Writing application : mkvmerge v3.3.0 ('Language') built on Mar 24 2010 14:59:24
Writing library : libebml v0.8.0 + libmatroska v0.9.0
Video
ID : 1
Format : AVC
Format/Info : Advanced Video Codec
Format profile : High@L3.1
Format settings : CABAC / 4 Ref Frames
Format settings, CABAC : Yes
Format settings, ReFrames : 4 frames
Codec ID : V_MPEG4/ISO/AVC
Duration : 1 h 35 min
Bit rate : 1 001 kb/s
Width : 1 280 pixels
Height : 720 pixels
Display aspect ratio : 16:9
Frame rate mode : Constant
Frame rate : 25.000 FPS
Color space : YUV
Chroma subsampling : 4:2:0
Bit depth : 8 bits
Scan type : Progressive
Bits/(Pixel*Frame) : 0.043
Stream size : 670 MiB (87%)
Writing library : x264 core 133 r2334 a3ac64b
Encoding settings : cabac=1 / ref=3 / deblock=1:-1:-1 / analyse=0x3:0x113 / me=hex / subme=7 / psy=1 / psy_rd=1.00:0.15 / mixed_ref=1 / me_range=16 / chroma_me=1 / trellis=1 / 8x8dct=1 / cqm=0 / deadzone=21,11 / fast_pskip=1 / chroma_qp_offset=-3 / threads=18 / lookahead_threads=3 / sliced_threads=0 / nr=0 / decimate=1 / interlaced=0 / bluray_compat=0 / constrained_intra=0 / bframes=3 / b_pyramid=2 / b_adapt=1 / b_bias=0 / direct=1 / weightb=1 / open_gop=0 / weightp=2 / keyint=250 / keyint_min=25 / scenecut=40 / intra_refresh=0 / rc_lookahead=40 / rc=abr / mbtree=1 / bitrate=1001 / ratetol=1.0 / qcomp=0.60 / qpmin=0 / qpmax=69 / qpstep=4 / ip_ratio=1.40 / aq=1:1.00
Default : No
Forced : No
Audio
ID : 2
Format : AC-3
Format/Info : Audio Coding 3
Codec ID : A_AC3
Duration : 1 h 35 min
Bit rate mode : Constant
Bit rate : 128 kb/s
Channel(s) : 2 channels
Channel positions : Front: L R
Sampling rate : 48.0 kHz
Frame rate : 31.250 FPS (1536 SPF)
Bit depth : 16 bits
Compression mode : Lossy
Stream size : 87.7 MiB (11%)
Language : English
Service kind : Complete Main
Default : No
Forced : No




TRT Gunduz Sinemasi Kotu Arkadaslar-Bad Company 1972 HDTvRip 720p AC3 by TheWelleTy TORK

Genişletmek için Tıkla!
01-01-2018 20:15 , TheWelleTy Tarafından Yüklendi.
Kaynaklar: 1 / İndirilen: 0 / Boyut: 671.83 MB / Tamamlandı: 17
Torrenti İndir  Torrenti Şikayet Et Torrent Tanımı Tanıtım Videosu
IMDB Puanı: 7.1 7.1/10 Kategori: Drama | Macera
Kategori: Yabancı Filmler > 720p
http://www.imdb.com/title/tt0068245/

TRT Gunduz Sinemasi Kotu Arkadaslar-Bad Company 1972 HDTvRip 720p AC3 by TheWelleTy TORK





Genişlet Kod:
General
Unique ID                   : 254280315278552413918331697029043765701 (0xBF4C9B7B0C61FCDCBB8033B705ECC1C5)
Complete name               : D:\TORK\TRT.Gunduz.Sinemasi.Kotu.Arkadaslar.1972.HDTvRip.720p.AC3.by.TheWelleTy.TORK.mkv
Format                      : Matroska
Format version              : Version 2
File size                   : 672 MiB
Duration                    : 1 h 23 min
Overall bit rate            : 1 124 kb/s
Encoded date                : UTC 2018-01-01 18:10:54
Writing application         : mkvmerge v3.3.0 ('Language') built on Mar 24 2010 14:59:24
Writing library             : libebml v0.8.0 + libmatroska v0.9.0

Video
ID                          : 1
Format                      : AVC
Format/Info                 : Advanced Video Codec
Format profile              : High@L3.1
Format settings, CABAC      : Yes
Format settings, RefFrames  : 4 frames
Codec ID                    : V_MPEG4/ISO/AVC
Duration                    : 1 h 23 min
Bit rate                    : 1 000 kb/s
Width                       : 1 280 pixels
Height                      : 720 pixels
Display aspect ratio        : 16:9
Frame rate mode             : Constant
Frame rate                  : 25.000 FPS
Color space                 : YUV
Chroma subsampling          : 4:2:0
Bit depth                   : 8 bits
Scan type                   : Progressive
Bits/(Pixel*Frame)          : 0.043
Stream size                 : 582 MiB (87%)
Writing library             : x264 core 133 r2334 a3ac64b
Encoding settings           : cabac=1 / ref=3 / deblock=1:-1:-1 / analyse=0x3:0x113 / me=hex / subme=7 / psy=1 / psy_rd=1.00:0.15 / mixed_ref=1 / me_range=16 / chroma_me=1 / trellis=1 / 8x8dct=1 / cqm=0 / deadzone=21,11 / fast_pskip=1 / chroma_qp_offset=-3 / threads=18 / lookahead_threads=3 / sliced_threads=0 / nr=0 / decimate=1 / interlaced=0 / bluray_compat=0 / constrained_intra=0 / bframes=3 / b_pyramid=2 / b_adapt=1 / b_bias=0 / direct=1 / weightb=1 / open_gop=0 / weightp=2 / keyint=250 / keyint_min=25 / scenecut=40 / intra_refresh=0 / rc_lookahead=40 / rc=abr / mbtree=1 / bitrate=1000 / ratetol=1.0 / qcomp=0.60 / qpmin=0 / qpmax=69 / qpstep=4 / ip_ratio=1.40 / aq=1:1.00
Default                     : No
Forced                      : No

Audio
ID                          : 2
Format                      : AC-3
Format/Info                 : Audio Coding 3
Format settings, Endianness : Big
Codec ID                    : A_AC3
Duration                    : 1 h 23 min
Bit rate mode               : Constant
Bit rate                    : 128 kb/s
Channel(s)                  : 2 channels
Channel positions           : Front: L R
Sampling rate               : 48.0 kHz
Frame rate                  : 31.250 FPS (1536 SPF)
Bit depth                   : 16 bits
Compression mode            : Lossy
Stream size                 : 76.5 MiB (11%)
Language                    : English
Service kind                : Complete Main
Default                     : No
Forced                      : No




TRT Gunduz Sinemasi Kin Tuzagi-Big Jake 1971 HDTvRip 720p AC3 by TheWelleTy TORK

Genişletmek için Tıkla!
24-12-2017 22:15 , TheWelleTy Tarafından Yüklendi.
Kaynaklar: 1 / İndirilen: 0 / Boyut: 839.55 MB / Tamamlandı: 22
Torrenti İndir  Torrenti Şikayet Et Torrent Tanımı Tanıtım Videosu
IMDB Puanı: 7.2 7.2/10 Kategori: Tarihi
Kategori: Yabancı Filmler > 720p
http://www.imdb.com/title/tt0066831/

TRT Gunduz Sinemasi Kin Tuzagi-Big Jake 1971 HDTvRip 720p AC3 by TheWelleTy TORK





Genişlet Kod:
General
Unique ID : 247997564920435039104430953120378851020 (0xBA9297F8E450B422B14C00D6A5070ECC)
Complete name : D:\TORK\TRT.Gunduz.Sinemasi.Kin.Tuzagi.1971.HDTvRip.720p.AC3.by.TheWelleTy.TORK.mkv
Format : Matroska
Format version : Version 2
File size : 840 MiB
Duration : 1 h 44 min
Overall bit rate : 1 123 kb/s
Encoded date : UTC 2017-12-24 20:10:58
Writing application : mkvmerge v3.3.0 ('Language') built on Mar 24 2010 14:59:24
Writing library : libebml v0.8.0 + libmatroska v0.9.0
Video
ID : 1
Format : AVC
Format/Info : Advanced Video Codec
Format profile : High@L3.1
Format settings, CABAC : Yes
Format settings, RefFrames : 4 frames
Codec ID : V_MPEG4/ISO/AVC
Duration : 1 h 44 min
Bit rate : 1 000 kb/s
Width : 1 280 pixels
Height : 720 pixels
Display aspect ratio : 16:9
Frame rate mode : Constant
Frame rate : 25.000 FPS
Color space : YUV
Chroma subsampling : 4:2:0
Bit depth : 8 bits
Scan type : Progressive
Bits/(Pixel*Frame) : 0.043
Stream size : 727 MiB (87%)
Writing library : x264 core 128 r2216 198a7ea
Encoding settings : cabac=1 / ref=3 / deblock=1:-1:-1 / analyse=0x3:0x113 / me=hex / subme=7 / psy=1 / psy_rd=1.00:0.15 / mixed_ref=1 / me_range=16 / chroma_me=1 / trellis=1 / 8x8dct=1 / cqm=0 / deadzone=21,11 / fast_pskip=1 / chroma_qp_offset=-3 / threads=18 / lookahead_threads=3 / sliced_threads=0 / nr=0 / decimate=1 / interlaced=0 / bluray_compat=0 / constrained_intra=0 / bframes=3 / b_pyramid=2 / b_adapt=1 / b_bias=0 / direct=1 / weightb=1 / open_gop=0 / weightp=2 / keyint=250 / keyint_min=25 / scenecut=40 / intra_refresh=0 / rc_lookahead=40 / rc=abr / mbtree=1 / bitrate=1000 / ratetol=1.0 / qcomp=0.60 / qpmin=0 / qpmax=69 / qpstep=4 / ip_ratio=1.40 / aq=1:1.00
Default : No
Forced : No
Audio
ID : 2
Format : AC-3
Format/Info : Audio Coding 3
Format settings, Endianness : Big
Codec ID : A_AC3
Duration : 1 h 44 min
Bit rate mode : Constant
Bit rate : 128 kb/s
Channel(s) : 2 channels
Channel positions : Front: L R
Sampling rate : 48.0 kHz
Frame rate : 31.250 FPS (1536 SPF)
Bit depth : 16 bits
Compression mode : Lossy
Stream size : 95.7 MiB (11%)
Language : English
Service kind : Complete Main
Default : No
Forced : No




TRT Gunduz Sinemasi Kumar ve Olum 1968 HDTvRip 720p AC3 by TheWelleTy TORK

Genişletmek için Tıkla!
18-12-2017 23:10 , TheWelleTy Tarafından Yüklendi.
Kaynaklar: 1 / İndirilen: 0 / Boyut: 796.06 MB / Tamamlandı: 19
Torrenti İndir  Torrenti Şikayet Et Torrent Tanımı Tanıtım Videosu
IMDB Puanı: 6.6 6.6/10 Kategori: Gizem | Romantik
Kategori: Yabancı Filmler > 720p
http://www.imdb.com/title/tt0062626/

TRT Gunduz Sinemasi Kumar ve Olum 1968 HDTvRip 720p AC3 by TheWelleTy TORK





Genişlet Kod:
General
Unique ID : 188216006291815178972551304374410151312 (0x8D9915919B6C30CF85E2878979C60590)
Complete name : D:\TORK\TRT.Gunduz.Sinemasi.Kumar.ve.Olum1968.HDTvRip.720p.AC3.by.TheWelleTy.TORK.mkv
Format : Matroska
Format version : Version 2
File size : 796 MiB
Duration : 1 h 38 min
Overall bit rate : 1 133 kb/s
Encoded date : UTC 2017-12-18 21:04:33
Writing application : mkvmerge v3.3.0 ('Language') built on Mar 24 2010 14:59:24
Writing library : libebml v0.8.0 + libmatroska v0.9.0
Video
ID : 1
Format : AVC
Format/Info : Advanced Video Codec
Format profile : High@L3.1
Format settings, CABAC : Yes
Format settings, RefFrames : 4 frames
Codec ID : V_MPEG4/ISO/AVC
Duration : 1 h 38 min
Bit rate : 1 000 kb/s
Width : 1 280 pixels
Height : 720 pixels
Display aspect ratio : 16:9
Frame rate mode : Constant
Frame rate : 25.000 FPS
Color space : YUV
Chroma subsampling : 4:2:0
Bit depth : 8 bits
Scan type : Progressive
Bits/(Pixel*Frame) : 0.043
Stream size : 690 MiB (87%)
Writing library : x264 core 133 r2334 a3ac64b
Encoding settings : cabac=1 / ref=3 / deblock=1:-1:-1 / analyse=0x3:0x113 / me=hex / subme=7 / psy=1 / psy_rd=1.00:0.15 / mixed_ref=1 / me_range=16 / chroma_me=1 / trellis=1 / 8x8dct=1 / cqm=0 / deadzone=21,11 / fast_pskip=1 / chroma_qp_offset=-3 / threads=18 / lookahead_threads=3 / sliced_threads=0 / nr=0 / decimate=1 / interlaced=0 / bluray_compat=0 / constrained_intra=0 / bframes=3 / b_pyramid=2 / b_adapt=1 / b_bias=0 / direct=1 / weightb=1 / open_gop=0 / weightp=2 / keyint=250 / keyint_min=25 / scenecut=40 / intra_refresh=0 / rc_lookahead=40 / rc=abr / mbtree=1 / bitrate=1000 / ratetol=1.0 / qcomp=0.60 / qpmin=0 / qpmax=69 / qpstep=4 / ip_ratio=1.40 / aq=1:1.00
Default : No
Forced : No
Audio
ID : 2
Format : AC-3
Format/Info : Audio Coding 3
Format settings, Endianness : Big
Codec ID : A_AC3
Duration : 1 h 38 min
Bit rate mode : Constant
Bit rate : 128 kb/s
Channel(s) : 2 channels
Channel positions : Front: L R
Sampling rate : 48.0 kHz
Frame rate : 31.250 FPS (1536 SPF)
Bit depth : 16 bits
Compression mode : Lossy
Stream size : 89.9 MiB (11%)
Language : English
Service kind : Complete Main
Default : No
Forced : No




TRT Gunduz Sinemasi Takim-Posse 1975 HDTvRip 720p AC3 by TheWelleTy TORK

Genişletmek için Tıkla!
12-12-2017 23:06 , TheWelleTy Tarafından Yüklendi.
Kaynaklar: 1 / İndirilen: 0 / Boyut: 702.54 MB / Tamamlandı: 20
Torrenti İndir  Torrenti Şikayet Et Torrent Tanımı Tanıtım Videosu
IMDB Puanı: 6.6 6.6/10
Kategori: Yabancı Filmler > 720p
http://www.imdb.com/title/tt0073559/

TRT Gunduz Sinemasi Takim-Posse 1975 HDTvRip 720p AC3 by TheWelleTy TORK





Açiklama : Marksiz bir siyaset mareşali ve milletvekilleri, liderlerinin her insanın fiyata sahip olduğunu kanıtlayan bir tren soyguncularının çetesini takip ediyor.



Genişlet Kod:
General
Unique ID : 201649139455109453602283653205072345108 (0x97B4362B006456CEA0EBEA398704F814)
Complete name : D:\TORK\TRT.Gunduz.Sinemasi.Takim.1975.HDTvRip.720p.AC3.by.TheWelleTy.TORK.mkv
Format : Matroska
Format version : Version 2
File size : 703 MiB
Duration : 1 h 27 min
Overall bit rate : 1 128 kb/s
Encoded date : UTC 2017-12-12 21:02:42
Writing application : mkvmerge v3.3.0 ('Language') built on Mar 24 2010 14:59:24
Writing library : libebml v0.8.0 + libmatroska v0.9.0
Video
ID : 1
Format : AVC
Format/Info : Advanced Video Codec
Format profile : High@L3.1
Format settings, CABAC : Yes
Format settings, RefFrames : 4 frames
Codec ID : V_MPEG4/ISO/AVC
Duration : 1 h 27 min
Bit rate : 1 001 kb/s
Width : 1 280 pixels
Height : 720 pixels
Display aspect ratio : 16:9
Frame rate mode : Constant
Frame rate : 25.000 FPS
Color space : YUV
Chroma subsampling : 4:2:0
Bit depth : 8 bits
Scan type : Progressive
Bits/(Pixel*Frame) : 0.043
Stream size : 609 MiB (87%)
Writing library : x264 core 133 r2334 a3ac64b
Encoding settings : cabac=1 / ref=3 / deblock=1:-1:-1 / analyse=0x3:0x113 / me=hex / subme=7 / psy=1 / psy_rd=1.00:0.15 / mixed_ref=1 / me_range=16 / chroma_me=1 / trellis=1 / 8x8dct=1 / cqm=0 / deadzone=21,11 / fast_pskip=1 / chroma_qp_offset=-3 / threads=18 / lookahead_threads=3 / sliced_threads=0 / nr=0 / decimate=1 / interlaced=0 / bluray_compat=0 / constrained_intra=0 / bframes=3 / b_pyramid=2 / b_adapt=1 / b_bias=0 / direct=1 / weightb=1 / open_gop=0 / weightp=2 / keyint=250 / keyint_min=25 / scenecut=40 / intra_refresh=0 / rc_lookahead=40 / rc=abr / mbtree=1 / bitrate=1001 / ratetol=1.0 / qcomp=0.60 / qpmin=0 / qpmax=69 / qpstep=4 / ip_ratio=1.40 / aq=1:1.00
Default : No
Forced : No
Audio
ID : 2
Format : AC-3
Format/Info : Audio Coding 3
Format settings, Endianness : Big
Codec ID : A_AC3
Duration : 1 h 27 min
Bit rate mode : Constant
Bit rate : 128 kb/s
Channel(s) : 2 channels
Channel positions : Front: L R
Sampling rate : 48.0 kHz
Frame rate : 31.250 FPS (1536 SPF)
Bit depth : 16 bits
Compression mode : Lossy
Stream size : 79.7 MiB (11%)
Language : English
Service kind : Complete Main
Default : No
Forced : No




TRT Gunduz Sinemasi Korkunc Kumpanya 1960 HDTvRip 720p AC3 by TheWelleTy TORK

Genişletmek için Tıkla!
06-12-2017 23:21 , TheWelleTy Tarafından Yüklendi.
Kaynaklar: 1 / İndirilen: 0 / Boyut: 762.73 MB / Tamamlandı: 31
Torrenti İndir  Torrenti Şikayet Et Torrent Tanımı Tanıtım Videosu
IMDB Puanı: 6.1 6.1/10 Kategori: Drama | Macera
Kategori: Yabancı Filmler > 720p
http://www.imdb.com/title/tt0053902/

TRT Gunduz Sinemasi Korkunc Kumpanya 1960 HDTvRip 720p AC3 by TheWelleTy TORK





Genişlet Kod:
General
Unique ID : 245153952783166372331885134684795962705 (0xB86EEF11C6CF956A8379DDE74E700551)
Complete name : D:\TORK\TRT.Gunduz.Sinemasi.Korkunc.Kumpanya.1960.HDTvRip.720p.AC3.by.TheWelleTy.TORK.mkv
Format : Matroska
Format version : Version 2
File size : 763 MiB
Duration : 1 h 35 min
Overall bit rate : 1 120 kb/s
Encoded date : UTC 2017-12-06 21:09:27
Writing application : mkvmerge v3.3.0 ('Language') built on Mar 24 2010 14:59:24
Writing library : libebml v0.8.0 + libmatroska v0.9.0
Video
ID : 1
Format : AVC
Format/Info : Advanced Video Codec
Format profile : High@L3.1
Format settings, CABAC : Yes
Format settings, RefFrames : 4 frames
Codec ID : V_MPEG4/ISO/AVC
Duration : 1 h 35 min
Bit rate : 1 000 kb/s
Width : 1 280 pixels
Height : 720 pixels
Display aspect ratio : 16:9
Frame rate mode : Constant
Frame rate : 25.000 FPS
Color space : YUV
Chroma subsampling : 4:2:0
Bit depth : 8 bits
Scan type : Progressive
Bits/(Pixel*Frame) : 0.043
Stream size : 660 MiB (87%)
Writing library : x264 core 133 r2334 a3ac64b
Encoding settings : cabac=1 / ref=3 / deblock=1:-1:-1 / analyse=0x3:0x113 / me=hex / subme=7 / psy=1 / psy_rd=1.00:0.15 / mixed_ref=1 / me_range=16 / chroma_me=1 / trellis=1 / 8x8dct=1 / cqm=0 / deadzone=21,11 / fast_pskip=1 / chroma_qp_offset=-3 / threads=18 / lookahead_threads=3 / sliced_threads=0 / nr=0 / decimate=1 / interlaced=0 / bluray_compat=0 / constrained_intra=0 / bframes=3 / b_pyramid=2 / b_adapt=1 / b_bias=0 / direct=1 / weightb=1 / open_gop=0 / weightp=2 / keyint=250 / keyint_min=25 / scenecut=40 / intra_refresh=0 / rc_lookahead=40 / rc=abr / mbtree=1 / bitrate=1000 / ratetol=1.0 / qcomp=0.60 / qpmin=0 / qpmax=69 / qpstep=4 / ip_ratio=1.40 / aq=1:1.00
Default : No
Forced : No
Audio
ID : 2
Format : AC-3
Format/Info : Audio Coding 3
Format settings, Endianness : Big
Codec ID : A_AC3
Duration : 1 h 35 min
Bit rate mode : Constant
Bit rate : 128 kb/s
Channel(s) : 2 channels
Channel positions : Front: L R
Sampling rate : 48.0 kHz
Frame rate : 31.250 FPS (1536 SPF)
Bit depth : 16 bits
Compression mode : Lossy
Stream size : 87.2 MiB (11%)
Language : English
Service kind : Complete Main
Default : No
Forced : No




TRT Gunduz Sinemasi Vahsi Mucadele 1957 HDTvRip 720p AC3 by TheWelleTy TORK

Genişletmek için Tıkla!
27-11-2017 11:19 , TheWelleTy Tarafından Yüklendi.
Kaynaklar: 1 / İndirilen: 0 / Boyut: 948.66 MB / Tamamlandı: 31
Torrenti İndir  Torrenti Şikayet Et Torrent Tanımı Tanıtım Videosu
IMDB Puanı: 7.2 7.2/10
Kategori: Yabancı Filmler > 720p
http://www.imdb.com/title/tt0050468/

TRT Gunduz Sinemasi Vahsi Mucadele 1957 HDTvRip 720p AC3 by TheWelleTy TORK





Genişlet Kod:
General
Unique ID : 188790176532113064561245595896808063382 (0x8E07AA58E53383C783729E7266ADC196)
Complete name : D:\TORK\TRT.Gunduz.Sinemasi.Vahsi.Mucadele.1957.HDTvRip.720p.AC3.by.TheWelleTy.TORK.mkv
Format : Matroska
Format version : Version 2
File size : 949 MiB
Duration : 1 h 57 min
Overall bit rate : 1 132 kb/s
Encoded date : UTC 2017-11-27 09:14:09
Writing application : mkvmerge v3.3.0 ('Language') built on Mar 24 2010 14:59:24
Writing library : libebml v0.8.0 + libmatroska v0.9.0
Video
ID : 1
Format : AVC
Format/Info : Advanced Video Codec
Format profile : High@L3.1
Format settings, CABAC : Yes
Format settings, RefFrames : 4 frames
Codec ID : V_MPEG4/ISO/AVC
Duration : 1 h 57 min
Bit rate : 1 000 kb/s
Width : 1 280 pixels
Height : 720 pixels
Display aspect ratio : 16:9
Frame rate mode : Constant
Frame rate : 25.000 FPS
Color space : YUV
Chroma subsampling : 4:2:0
Bit depth : 8 bits
Scan type : Progressive
Bits/(Pixel*Frame) : 0.043
Stream size : 823 MiB (87%)
Writing library : x264 core 133 r2334 a3ac64b
Encoding settings : cabac=1 / ref=3 / deblock=1:-1:-1 / analyse=0x3:0x113 / me=hex / subme=7 / psy=1 / psy_rd=1.00:0.15 / mixed_ref=1 / me_range=16 / chroma_me=1 / trellis=1 / 8x8dct=1 / cqm=0 / deadzone=21,11 / fast_pskip=1 / chroma_qp_offset=-3 / threads=18 / lookahead_threads=3 / sliced_threads=0 / nr=0 / decimate=1 / interlaced=0 / bluray_compat=0 / constrained_intra=0 / bframes=3 / b_pyramid=2 / b_adapt=1 / b_bias=0 / direct=1 / weightb=1 / open_gop=0 / weightp=2 / keyint=250 / keyint_min=25 / scenecut=40 / intra_refresh=0 / rc_lookahead=40 / rc=abr / mbtree=1 / bitrate=1000 / ratetol=1.0 / qcomp=0.60 / qpmin=0 / qpmax=69 / qpstep=4 / ip_ratio=1.40 / aq=1:1.00
Default : No
Forced : No
Audio
ID : 2
Format : AC-3
Format/Info : Audio Coding 3
Format settings, Endianness : Big
Codec ID : A_AC3
Duration : 1 h 57 min
Bit rate mode : Constant
Bit rate : 128 kb/s
Channel(s) : 2 channels
Channel positions : Front: L R
Sampling rate : 48.0 kHz
Frame rate : 31.250 FPS (1536 SPF)
Bit depth : 16 bits
Compression mode : Lossy
Stream size : 107 MiB (11%)
Language : English
Service kind : Complete Main
Default : No
Forced : No




TRT Belgesel HD Vikingler BL 01 720p HDTvRip AC3 By SALCI TORK

Genişletmek için Tıkla!
25-05-2017 23:45 , SALCI Tarafından Yüklendi.
Kaynaklar: 0 / İndirilen: 0 / Boyut: 549.29 MB / Tamamlandı: 35
Torrenti İndir  Torrenti Şikayet Et Torrent Tanımı
Kategori: Belgesel
Kategori: TV Kayıtları > Belgesel

TRT Belgesel HD Vikingler BL 01 720p HDTvRip AC3 By SALCI TORK




Genişlet Kod:
General
Unique ID                                : 170748927917429759168698286400603750005 (0x80750C1D7AB850F5B41AD4CC9678FE75)
Complete name                            : E:\Belgeseller\TRT Belgesel HD Vikingler BL 01 720p HDTvRip AC3 By SALCI TORK.mkv
Format                                   : Matroska
Format version                           : Version 4 / Version 2
File size                                : 549 MiB
Duration                                 : 45mn 22s
Overall bit rate                         : 1 693 Kbps
Encoded date                             : UTC 2017-05-03 14:04:07
Writing application                      : mkvmerge v9.6.0 ('Slave To Your Mind') 64bit
Writing library                          : libebml v1.3.4 + libmatroska v1.4.5
DURATION                                 : 00:45:22.144000000
NUMBER_OF_FRAMES                         : 85067
NUMBER_OF_BYTES                          : 65331456
_STATISTICS_WRITING_APP                  : mkvmerge v9.6.0 ('Slave To Your Mind') 64bit
_STATISTICS_WRITING_DATE_UTC             : 2017-05-03 14:04:07
_STATISTICS_TAGS                         : BPS DURATION NUMBER_OF_FRAMES NUMBER_OF_BYTES

Video
ID                                       : 1
Format                                   : AVC
Format/Info                              : Advanced Video Codec
Format profile                           : High@L3.1
Format settings, CABAC                   : Yes
Format settings, ReFrames                : 4 frames
Codec ID                                 : V_MPEG4/ISO/AVC
Duration                                 : 45mn 22s
Bit rate                                 : 1 500 Kbps
Width                                    : 1 280 pixels
Height                                   : 720 pixels
Display aspect ratio                     : 16:9
Frame rate mode                          : Constant
Frame rate                               : 25.000 fps
Color space                              : YUV
Chroma subsampling                       : 4:2:0
Bit depth                                : 8 bits
Scan type                                : Progressive
Bits/(Pixel*Frame)                       : 0.065
Stream size                              : 476 MiB (87%)
Writing library                          : x264 core 148 r2721 72d53ab
Default                                  : Yes
Forced                                   : No

Audio
ID                                       : 2
Format                                   : AC-3
Format/Info                              : Audio Coding 3
Mode extension                           : CM (complete main)
Format settings, Endianness              : Big
Codec ID                                 : A_AC3
Duration                                 : 45mn 22s
Bit rate mode                            : Constant
Bit rate                                 : 192 Kbps
Channel(s)                               : 2 channels
Channel positions                        : Front: L R
Sampling rate                            : 48.0 KHz
Compression mode                         : Lossy
Stream size                              : 62.3 MiB (11%)
Language                                 : Turkish
Default                                  : No
Forced                                   : No



TRT Belgesel HD Tehlikeli Yolculuk Zehirli Atıklar 720p HDTvRip AC3 By SALCI TORK

Genişletmek için Tıkla!
25-05-2017 23:36 , SALCI Tarafından Yüklendi.
Kaynaklar: 0 / İndirilen: 0 / Boyut: 656.53 MB / Tamamlandı: 23
Torrenti İndir  Torrenti Şikayet Et Torrent Tanımı
Kategori: Belgesel
Kategori: TV Kayıtları > Belgesel

TRT Belgesel HD Tehlikeli Yolculuk Zehirli Atıklar 720p HDTvRip AC3 By SALCI TORK





Belgeselde; yıllardır yasa dışı örgütlerin kazanç kapısı haline gelen zehirli atık ticareti, konuyu araştıran gazetecilerin aldığı tehditler ve bu maddelerin dünyaya verdiği zarar anlatılıyor.



Genişlet Kod:
General
Unique ID                                : 187131690825247797245817323193881082763 (0x8CC840B051B043088E1597CF17CC3B8B)
Complete name                            : E:\Belgeseller\TRT Belgesel HD Tehlikeli Yolculuk Zehirli Atıklar 720p HDTvRip AC3 By SALCI TORK.mkv
Format                                   : Matroska
Format version                           : Version 4 / Version 2
File size                                : 657 MiB
Duration                                 : 54mn 15s
Overall bit rate                         : 1 692 Kbps
Encoded date                             : UTC 2017-05-07 18:18:40
Writing application                      : mkvmerge v9.6.0 ('Slave To Your Mind') 64bit
Writing library                          : libebml v1.3.4 + libmatroska v1.4.5
DURATION                                 : 00:54:15.680000000
NUMBER_OF_FRAMES                         : 101740
NUMBER_OF_BYTES                          : 78136320
_STATISTICS_WRITING_APP                  : mkvmerge v9.6.0 ('Slave To Your Mind') 64bit
_STATISTICS_WRITING_DATE_UTC             : 2017-05-07 18:18:40
_STATISTICS_TAGS                         : BPS DURATION NUMBER_OF_FRAMES NUMBER_OF_BYTES

Video
ID                                       : 1
Format                                   : AVC
Format/Info                              : Advanced Video Codec
Format profile                           : High@L3.1
Format settings, CABAC                   : Yes
Format settings, ReFrames                : 4 frames
Codec ID                                 : V_MPEG4/ISO/AVC
Duration                                 : 54mn 15s
Bit rate                                 : 1 501 Kbps
Width                                    : 1 280 pixels
Height                                   : 720 pixels
Display aspect ratio                     : 16:9
Frame rate mode                          : Constant
Frame rate                               : 25.000 fps
Color space                              : YUV
Chroma subsampling                       : 4:2:0
Bit depth                                : 8 bits
Scan type                                : Progressive
Bits/(Pixel*Frame)                       : 0.065
Stream size                              : 569 MiB (87%)
Writing library                          : x264 core 148 r2721 72d53ab
Default                                  : Yes
Forced                                   : No

Audio
ID                                       : 2
Format                                   : AC-3
Format/Info                              : Audio Coding 3
Mode extension                           : CM (complete main)
Format settings, Endianness              : Big
Codec ID                                 : A_AC3
Duration                                 : 54mn 15s
Bit rate mode                            : Constant
Bit rate                                 : 192 Kbps
Channel(s)                               : 2 channels
Channel positions                        : Front: L R
Sampling rate                            : 48.0 KHz
Compression mode                         : Lossy
Stream size                              : 74.5 MiB (11%)
Language                                 : Turkish
Default                                  : No
Forced                                   : No



TRT Belgesel HD Gururlu Kükreyiş BL 02 720p HDTvRip AC3 By SALCI TORK

Genişletmek için Tıkla!
25-05-2017 23:23 , SALCI Tarafından Yüklendi.
Kaynaklar: 1 / İndirilen: 0 / Boyut: 529.13 MB / Tamamlandı: 30
Torrenti İndir  Torrenti Şikayet Et Torrent Tanımı
Kategori: Belgesel
Kategori: TV Kayıtları > Belgesel

TRT Belgesel HD Gururlu Kükreyiş BL 02 720p HDTvRip AC3 By SALCI TORK





Afrika'daki aslan popülasyonunu arttırmayı amaçlayan Alert adlı bir projede; esaret altındaki aslanların yabani ortama bırakıldıklarında gösterdikleri gelişim anlatılmaktadır..



Genişlet Kod:
General
Unique ID                                : 214303905146571771210146522419658982390 (0xA1396E49B37F2D83AF5FC9BEBE4F83F6)
Complete name                            : E:\Belgeseller\TRT Belgesel HD Gururlu Kükreyiş BL 02 720p HDTvRip AC3 By SALCI TORK.mkv
Format                                   : Matroska
Format version                           : Version 4 / Version 2
File size                                : 529 MiB
Duration                                 : 44mn 3s
Overall bit rate                         : 1 679 Kbps
Encoded date                             : UTC 2017-05-03 13:03:43
Writing application                      : mkvmerge v9.6.0 ('Slave To Your Mind') 64bit
Writing library                          : libebml v1.3.4 + libmatroska v1.4.5
DURATION                                 : 00:44:03.232000000
NUMBER_OF_FRAMES                         : 82601
NUMBER_OF_BYTES                          : 63437568
_STATISTICS_WRITING_APP                  : mkvmerge v9.6.0 ('Slave To Your Mind') 64bit
_STATISTICS_WRITING_DATE_UTC             : 2017-05-03 13:03:43
_STATISTICS_TAGS                         : BPS DURATION NUMBER_OF_FRAMES NUMBER_OF_BYTES

Video
ID                                       : 1
Format                                   : AVC
Format/Info                              : Advanced Video Codec
Format profile                           : High@L3.1
Format settings, CABAC                   : Yes
Format settings, ReFrames                : 4 frames
Codec ID                                 : V_MPEG4/ISO/AVC
Duration                                 : 44mn 3s
Bit rate                                 : 1 500 Kbps
Width                                    : 1 280 pixels
Height                                   : 720 pixels
Display aspect ratio                     : 16:9
Frame rate mode                          : Constant
Frame rate                               : 25.000 fps
Color space                              : YUV
Chroma subsampling                       : 4:2:0
Bit depth                                : 8 bits
Scan type                                : Progressive
Bits/(Pixel*Frame)                       : 0.065
Stream size                              : 458 MiB (87%)
Writing library                          : x264 core 148 r2721 72d53ab
Default                                  : Yes
Forced                                   : No

Audio
ID                                       : 2
Format                                   : AC-3
Format/Info                              : Audio Coding 3
Mode extension                           : CM (complete main)
Format settings, Endianness              : Big
Codec ID                                 : A_AC3
Duration                                 : 44mn 3s
Bit rate mode                            : Constant
Bit rate                                 : 192 Kbps
Channel(s)                               : 2 channels
Channel positions                        : Front: L R
Sampling rate                            : 48.0 KHz
Compression mode                         : Lossy
Stream size                              : 60.5 MiB (11%)
Language                                 : Turkish
Default                                  : No
Forced                                   : No



TRT Belgesel HD Yabancı Hayatı Keşfet BL 04 720p HDTvRip AC3 By SALCI TORK

Genişletmek için Tıkla!
25-05-2017 23:16 , SALCI Tarafından Yüklendi.
Kaynaklar: 0 / İndirilen: 0 / Boyut: 313.69 MB / Tamamlandı: 18
Torrenti İndir  Torrenti Şikayet Et Torrent Tanımı
Kategori: Belgesel
Kategori: TV Kayıtları > Belgesel

TRT Belgesel HD Yabancı Hayatı Keşfet BL 04 720p HDTvRip AC3 By SALCI TORK





Yabancı, dünyanın farklı coğrafyalarında vahşi doğanın, yaban hayatın ve etnik kültürün gizemlerini doğa gezgini ve yaban hayat fotoğrafçısı Burak Doğansoysal’ın deneyimleri ve anlatımıyla ekrana taşımayı amaçlayan bir televizyon belgeselidir.



Genişlet Kod:
General
Unique ID                                : 247357399129420075329468798764996025578 (0xBA174D5CA54573D1B99449E1571EDCEA)
Complete name                            : E:\Belgeseller\TRT Belgesel HD Yabancı Hayatı Keşfet BL 04 720p HDTvRip AC3 By SALCI TORK.mkv
Format                                   : Matroska
Format version                           : Version 4 / Version 2
File size                                : 314 MiB
Duration                                 : 26mn 16s
Overall bit rate                         : 1 669 Kbps
Encoded date                             : UTC 2017-05-03 16:31:37
Writing application                      : mkvmerge v9.6.0 ('Slave To Your Mind') 64bit
Writing library                          : libebml v1.3.4 + libmatroska v1.4.5
DURATION                                 : 00:26:16.384000000
NUMBER_OF_FRAMES                         : 49262
NUMBER_OF_BYTES                          : 37833216
_STATISTICS_WRITING_APP                  : mkvmerge v9.6.0 ('Slave To Your Mind') 64bit
_STATISTICS_WRITING_DATE_UTC             : 2017-05-03 16:31:37
_STATISTICS_TAGS                         : BPS DURATION NUMBER_OF_FRAMES NUMBER_OF_BYTES

Video
ID                                       : 1
Format                                   : AVC
Format/Info                              : Advanced Video Codec
Format profile                           : High@L3.1
Format settings, CABAC                   : Yes
Format settings, ReFrames                : 4 frames
Codec ID                                 : V_MPEG4/ISO/AVC
Duration                                 : 26mn 16s
Bit rate                                 : 1 498 Kbps
Width                                    : 1 280 pixels
Height                                   : 720 pixels
Display aspect ratio                     : 16:9
Frame rate mode                          : Constant
Frame rate                               : 25.000 fps
Color space                              : YUV
Chroma subsampling                       : 4:2:0
Bit depth                                : 8 bits
Scan type                                : Progressive
Bits/(Pixel*Frame)                       : 0.065
Stream size                              : 271 MiB (87%)
Writing library                          : x264 core 148 r2721 72d53ab
Default                                  : Yes
Forced                                   : No

Audio
ID                                       : 2
Format                                   : AC-3
Format/Info                              : Audio Coding 3
Mode extension                           : CM (complete main)
Format settings, Endianness              : Big
Codec ID                                 : A_AC3
Duration                                 : 26mn 16s
Bit rate mode                            : Constant
Bit rate                                 : 192 Kbps
Channel(s)                               : 2 channels
Channel positions                        : Front: L R
Sampling rate                            : 48.0 KHz
Compression mode                         : Lossy
Stream size                              : 36.1 MiB (12%)
Language                                 : Turkish
Default                                  : No
Forced                                   : No



TRT Belgesel HD Tuna Avrupanın Amazonu BL 01 720p HDTvRip x264 AC3 By SALCI TORK

Genişletmek için Tıkla!
25-05-2017 22:49 , SALCI Tarafından Yüklendi.
Kaynaklar: 0 / İndirilen: 0 / Boyut: 616.39 MB / Tamamlandı: 30
Torrenti İndir  Torrenti Şikayet Et Torrent Tanımı
Kategori: Belgesel
Kategori: TV Kayıtları > Belgesel

TRT Belgesel HD Tuna Avrupanın Amazonu BL 01 720p HDTvRip x264 AC3 By SALCI TORK





Avrupa’nın ikinci en uzun nehri olan Tuna Nehri’nin muhteşem güzelliğini kapsamlı ve sinematik bir bakış açısıyla betimleyen yapım, insanlar ve doğa, vahşi yaşam ve medeniyet arasındaki derin çelişkiyi de gözler önüne seriyor


Genişlet Kod:
General
Unique ID                                : 200778010812694741965744927775166643512 (0x970C7035BB174021A665BE3D95353D38)
Complete name                            : E:\Belgeseller\TRT Belgesel HD Tuna Avrupanın Amazonu BL 01 720p HDTvRip x264 AC3 TORK.mkv
Format                                   : Matroska
Format version                           : Version 4 / Version 2
File size                                : 616 MiB
Duration                                 : 51mn 4s
Overall bit rate                         : 1 687 Kbps
Encoded date                             : UTC 2017-05-03 15:23:39
Writing application                      : mkvmerge v9.6.0 ('Slave To Your Mind') 64bit
Writing library                          : libebml v1.3.4 + libmatroska v1.4.5
DURATION                                 : 00:51:04.544000000
NUMBER_OF_FRAMES                         : 95767
NUMBER_OF_BYTES                          : 73549056
_STATISTICS_WRITING_APP                  : mkvmerge v9.6.0 ('Slave To Your Mind') 64bit
_STATISTICS_WRITING_DATE_UTC             : 2017-05-03 15:23:39
_STATISTICS_TAGS                         : BPS DURATION NUMBER_OF_FRAMES NUMBER_OF_BYTES

Video
ID                                       : 1
Format                                   : AVC
Format/Info                              : Advanced Video Codec
Format profile                           : High@L3.1
Format settings, CABAC                   : Yes
Format settings, ReFrames                : 4 frames
Codec ID                                 : V_MPEG4/ISO/AVC
Duration                                 : 51mn 4s
Bit rate                                 : 1 500 Kbps
Width                                    : 1 280 pixels
Height                                   : 720 pixels
Display aspect ratio                     : 16:9
Frame rate mode                          : Constant
Frame rate                               : 25.000 fps
Color space                              : YUV
Chroma subsampling                       : 4:2:0
Bit depth                                : 8 bits
Scan type                                : Progressive
Bits/(Pixel*Frame)                       : 0.065
Stream size                              : 534 MiB (87%)
Writing library                          : x264 core 148 r2721 72d53ab
Default                                  : Yes
Forced                                   : No

Audio
ID                                       : 2
Format                                   : AC-3
Format/Info                              : Audio Coding 3
Mode extension                           : CM (complete main)
Format settings, Endianness              : Big
Codec ID                                 : A_AC3
Duration                                 : 51mn 4s
Bit rate mode                            : Constant
Bit rate                                 : 192 Kbps
Channel(s)                               : 2 channels
Channel positions                        : Front: L R
Sampling rate                            : 48.0 KHz
Compression mode                         : Lossy
Stream size                              : 70.1 MiB (11%)
Language                                 : Turkish
Default                                  : No
Forced                                   : No



TRT Belgesel HD Havacılık Hikayeleri BL 01 720p HDTvRip AC3 By SALCI TORK

Genişletmek için Tıkla!
17-05-2017 11:27 , SALCI Tarafından Yüklendi.
Kaynaklar: 0 / İndirilen: 0 / Boyut: 373.34 MB / Tamamlandı: 20
Torrenti İndir  Torrenti Şikayet Et Torrent Tanımı
Kategori: Belgesel
Kategori: TV Kayıtları > Belgesel

TRT Belgesel HD Havacılık Hikayeleri BL 01 720p HDTvRip AC3 By SALCI TORK




Havacılık Hikayeleri’nde pilotların ve paraşütçülerin başlarından geçen ilginç olayları anlatılıyor.

Yaşanmış hikayelerin içinde izleyici havacılığın nasıl bir alan olduğunu, pilotların ve paraşütçülerin hayata nasıl baktıklarını, havacılığın dikkat, eğitim ve pozitiflik gerektiren bir alan olduğunu göreceksiniz.

Program için çekilen hangar muhabbetler, gençlere mesajlarla dolu bir içerik sunuyor.

Yönetmenliğini Rıza Sezgin, sunuculuğunu ve danışmanlığını Emekli Emniyet Müdürü ve Sivil Pilot Bülent Kılıçtepe yaptı.



Genişlet Kod:
General
Unique ID                                : 228430844262122441549990511277932154552 (0xABDA2E295C3BB55296A506D0083E0EB8)
Complete name                            : E:\Belgeseller\TRT Belgesel HD Havacılık Hikayeleri BL 01 720p HDTvRip AC3 By SALCI TORK.mkv
Format                                   : Matroska
Format version                           : Version 4 / Version 2
File size                                : 373 MiB
Duration                                 : 16mn 27s
Overall bit rate                         : 3 173 Kbps
Encoded date                             : UTC 2017-05-17 00:07:34
Writing application                      : mkvmerge v7.7.0 ('Six Voices') 32bit built on Feb 28 2015 23:23:00
Writing library                          : libebml v1.3.1 + libmatroska v1.4.2
DURATION                                 : 00:16:27.040000000
NUMBER_OF_FRAMES                         : 30845
NUMBER_OF_BYTES                          : 23688960
_STATISTICS_WRITING_APP                  : mkvmerge v7.7.0 ('Six Voices') 32bit built on Feb 28 2015 23:23:00
_STATISTICS_WRITING_DATE_UTC             : 2017-05-17 00:07:34
_STATISTICS_TAGS                         : BPS DURATION NUMBER_OF_FRAMES NUMBER_OF_BYTES

Video
ID                                       : 1
Format                                   : AVC
Format/Info                              : Advanced Video Codec
Format profile                           : High@L3.1
Format settings, CABAC                   : Yes
Format settings, ReFrames                : 4 frames
Codec ID                                 : V_MPEG4/ISO/AVC
Duration                                 : 16mn 27s
Bit rate                                 : 3 001 Kbps
Width                                    : 1 280 pixels
Height                                   : 720 pixels
Display aspect ratio                     : 16:9
Frame rate mode                          : Constant
Frame rate                               : 25.000 fps
Color space                              : YUV
Chroma subsampling                       : 4:2:0
Bit depth                                : 8 bits
Scan type                                : Progressive
Bits/(Pixel*Frame)                       : 0.130
Stream size                              : 343 MiB (92%)
Writing library                          : x264 core 146 r2538 121396c
Default                                  : Yes
Forced                                   : No

Audio
ID                                       : 2
Format                                   : AC-3
Format/Info                              : Audio Coding 3
Mode extension                           : CM (complete main)
Format settings, Endianness              : Big
Codec ID                                 : A_AC3
Duration                                 : 16mn 27s
Bit rate mode                            : Constant
Bit rate                                 : 192 Kbps
Channel(s)                               : 2 channels
Channel positions                        : Front: L R
Sampling rate                            : 48.0 KHz
Compression mode                         : Lossy
Stream size                              : 22.6 MiB (6%)
Language                                 : Turkish
Default                                  : Yes
Forced                                   : No



TRT Belgesel HD Vahsi Amerika BL 03 720p HDTvRip AC3 By SALCI TORK

Genişletmek için Tıkla!
06-05-2017 12:51 , SALCI Tarafından Yüklendi.
Kaynaklar: 1 / İndirilen: 0 / Boyut: 544.56 MB / Tamamlandı: 23
Torrenti İndir  Torrenti Şikayet Et Torrent Tanımı
Kategori: Belgesel
Kategori: TV Kayıtları > Belgesel

TRT Belgesel HD Vahsi Amerika BL 03 720p HDTvRip AC3 By SALCI TORK





Amerika kıtasında bulunan ormanlarda 4 mevsim doğal yaşam... av ve avcıların çetin mücadelesi...



Genişlet Kod:
General
Unique ID                                : 237686474770032108300969265118204528989 (0xB2D0BFFA5584EAC6B47EFEBBDC72095D)
Complete name                            : E:\Belgeseller\TRT Belgesel HD Vahsi Amerika BL 03 720p HDTvRip AC3 By SALCI TORK.mkv
Format                                   : Matroska
Format version                           : Version 4 / Version 2
File size                                : 545 MiB
Duration                                 : 45mn 4s
Overall bit rate                         : 1 689 Kbps
Encoded date                             : UTC 2017-04-22 01:49:41
Writing application                      : mkvmerge v9.6.0 ('Slave To Your Mind') 64bit
Writing library                          : libebml v1.3.4 + libmatroska v1.4.5
DURATION                                 : 00:45:04.256000000
NUMBER_OF_FRAMES                         : 84508
NUMBER_OF_BYTES                          : 64902144
_STATISTICS_WRITING_APP                  : mkvmerge v9.6.0 ('Slave To Your Mind') 64bit
_STATISTICS_WRITING_DATE_UTC             : 2017-04-22 01:49:41
_STATISTICS_TAGS                         : BPS DURATION NUMBER_OF_FRAMES NUMBER_OF_BYTES

Video
ID                                       : 1
Format                                   : AVC
Format/Info                              : Advanced Video Codec
Format profile                           : High@L3.1
Format settings, CABAC                   : Yes
Format settings, ReFrames                : 4 frames
Codec ID                                 : V_MPEG4/ISO/AVC
Duration                                 : 45mn 4s
Bit rate                                 : 1 499 Kbps
Width                                    : 1 280 pixels
Height                                   : 720 pixels
Display aspect ratio                     : 16:9
Frame rate mode                          : Constant
Frame rate                               : 25.000 fps
Color space                              : YUV
Chroma subsampling                       : 4:2:0
Bit depth                                : 8 bits
Scan type                                : Progressive
Bits/(Pixel*Frame)                       : 0.065
Stream size                              : 472 MiB (87%)
Writing library                          : x264 core 148 r2721 72d53ab
Default                                  : Yes
Forced                                   : No

Audio
ID                                       : 2
Format                                   : AC-3
Format/Info                              : Audio Coding 3
Mode extension                           : CM (complete main)
Format settings, Endianness              : Big
Codec ID                                 : A_AC3
Duration                                 : 45mn 4s
Bit rate mode                            : Constant
Bit rate                                 : 192 Kbps
Channel(s)                               : 2 channels
Channel positions                        : Front: L R
Sampling rate                            : 48.0 KHz
Compression mode                         : Lossy
Stream size                              : 61.9 MiB (11%)
Language                                 : Turkish
Default                                  : No
Forced                                   : No



TRT Belgesel HD Vahşi Slovakya 720p HDTvRip x264 AC3 TORK

Genişletmek için Tıkla!
06-05-2017 12:43 , SALCI Tarafından Yüklendi.
Kaynaklar: 1 / İndirilen: 0 / Boyut: 590.5 MB / Tamamlandı: 19
Torrenti İndir  Torrenti Şikayet Et Torrent Tanımı
Kategori: Belgesel
Kategori: TV Kayıtları > Belgesel

TRT Belgesel HD Vahşi Slovakya 720p HDTvRip x264 AC3 TORK




Slovakya'nın el değmemiş doğasının anlatıldığı belgeselde, nesli tükenme tehlikesi altındaki canlılardan, sadece slovakya'nın belli bölgelerinde yaşayan hayvanlara kadar son derece ilginç ve heyecan verici bir dünyanın kapıları aralanıyor.


Genişlet Kod:
General
Unique ID                                : 201922284851947018262834048947660357036 (0x97E8D1469A0479C4805069D5152D7DAC)
Complete name                            : E:\Belgeseller\TRT Belgesel HD Vahşi Slovakya 720p HDTvRip x264 AC3 TORK.mkv
Format                                   : Matroska
Format version                           : Version 4 / Version 2
File size                                : 590 MiB
Duration                                 : 48mn 14s
Overall bit rate                         : 1 711 Kbps
Encoded date                             : UTC 2017-04-30 12:11:18
Writing application                      : mkvmerge v9.6.0 ('Slave To Your Mind') 64bit
Writing library                          : libebml v1.3.4 + libmatroska v1.4.5
DURATION                                 : 00:48:14.240000000
NUMBER_OF_FRAMES                         : 90445
NUMBER_OF_BYTES                          : 69461760
_STATISTICS_WRITING_APP                  : mkvmerge v9.6.0 ('Slave To Your Mind') 64bit
_STATISTICS_WRITING_DATE_UTC             : 2017-04-30 12:11:18
_STATISTICS_TAGS                         : BPS DURATION NUMBER_OF_FRAMES NUMBER_OF_BYTES

Video
ID                                       : 1
Format                                   : AVC
Format/Info                              : Advanced Video Codec
Format profile                           : High@L3.1
Format settings, CABAC                   : Yes
Format settings, ReFrames                : 4 frames
Codec ID                                 : V_MPEG4/ISO/AVC
Duration                                 : 48mn 14s
Bit rate                                 : 1 501 Kbps
Width                                    : 1 280 pixels
Height                                   : 720 pixels
Display aspect ratio                     : 16:9
Frame rate mode                          : Constant
Frame rate                               : 25.000 fps
Color space                              : YUV
Chroma subsampling                       : 4:2:0
Bit depth                                : 8 bits
Scan type                                : Progressive
Bits/(Pixel*Frame)                       : 0.065
Stream size                              : 513 MiB (87%)
Writing library                          : x264 core 148 r2721 72d53ab
Default                                  : Yes
Forced                                   : No

Audio
ID                                       : 2
Format                                   : AC-3
Format/Info                              : Audio Coding 3
Mode extension                           : CM (complete main)
Format settings, Endianness              : Big
Codec ID                                 : A_AC3
Duration                                 : 48mn 14s
Bit rate mode                            : Constant
Bit rate                                 : 192 Kbps
Channel(s)                               : 2 channels
Channel positions                        : Front: L R
Sampling rate                            : 48.0 KHz
Compression mode                         : Lossy
Stream size                              : 66.2 MiB (11%)
Language                                 : Turkish
Default                                  : No
Forced                                   : No



TRT Belgesel HD Ortadoğu Yaban Hayatı BL 03 720p HDTvRip AC3 By SALCI TORK

Genişletmek için Tıkla!
06-05-2017 12:40 , SALCI Tarafından Yüklendi.
Kaynaklar: 1 / İndirilen: 0 / Boyut: 627.99 MB / Tamamlandı: 21
Torrenti İndir  Torrenti Şikayet Et Torrent Tanımı
Kategori: Belgesel
Kategori: TV Kayıtları > Belgesel

TRT Belgesel HD Ortadoğu Yaban Hayatı BL 03 720p HDTvRip AC3 By SALCI TORK




Ortadoğu'da sıradanlıktan çok uzak olan bir ülke var: Türkiye.

Yaban hayatı sıra dışı zorluklarla karşılaşıyor. Dağlar ve rakım ilkim değişiklikleri, kayalık sahil şeridi hepsi bir güçlük çıkarıyor. Burada birleşen tektonik tabakalar, Türkiye'yi bir deprem ülkesine dönüştürüyor. Kıtaların birleştiği bu ülkenin yabani göçebeleri de var tarih öncesinden kalma ziyaretçileri de.

Yaban hayatı, kendine zorluklar çıkaran bu ortamlarda ihtimallere karşı mücadele ediyor ve galip çıkmayı başarıyor.



Genişlet Kod:
General
Unique ID                                : 214300807655546299922050642871935355396 (0xA138D591DE3359D78284B7BF1524CA04)
Complete name                            : E:\Belgeseller\TRT Belgesel HD Ortadoğu Yaban Hayatı BL 03 720p HDTvRip AC3 By SALCI TORK.mkv
Format                                   : Matroska
Format version                           : Version 4 / Version 2
File size                                : 628 MiB
Duration                                 : 52mn 3s
Overall bit rate                         : 1 687 Kbps
Encoded date                             : UTC 2017-05-01 12:37:06
Writing application                      : mkvmerge v9.6.0 ('Slave To Your Mind') 64bit
Writing library                          : libebml v1.3.4 + libmatroska v1.4.5
DURATION                                 : 00:52:03.200000000
NUMBER_OF_FRAMES                         : 97600
NUMBER_OF_BYTES                          : 74956800
_STATISTICS_WRITING_APP                  : mkvmerge v9.6.0 ('Slave To Your Mind') 64bit
_STATISTICS_WRITING_DATE_UTC             : 2017-05-01 12:37:06
_STATISTICS_TAGS                         : BPS DURATION NUMBER_OF_FRAMES NUMBER_OF_BYTES

Video
ID                                       : 1
Format                                   : AVC
Format/Info                              : Advanced Video Codec
Format profile                           : High@L3.1
Format settings, CABAC                   : Yes
Format settings, ReFrames                : 4 frames
Codec ID                                 : V_MPEG4/ISO/AVC
Duration                                 : 52mn 3s
Bit rate                                 : 1 500 Kbps
Width                                    : 1 280 pixels
Height                                   : 720 pixels
Display aspect ratio                     : 16:9
Frame rate mode                          : Constant
Frame rate                               : 25.000 fps
Color space                              : YUV
Chroma subsampling                       : 4:2:0
Bit depth                                : 8 bits
Scan type                                : Progressive
Bits/(Pixel*Frame)                       : 0.065
Stream size                              : 544 MiB (87%)
Writing library                          : x264 core 148 r2721 72d53ab
Default                                  : Yes
Forced                                   : No

Audio
ID                                       : 2
Format                                   : AC-3
Format/Info                              : Audio Coding 3
Mode extension                           : CM (complete main)
Format settings, Endianness              : Big
Codec ID                                 : A_AC3
Duration                                 : 52mn 3s
Bit rate mode                            : Constant
Bit rate                                 : 192 Kbps
Channel(s)                               : 2 channels
Channel positions                        : Front: L R
Sampling rate                            : 48.0 KHz
Compression mode                         : Lossy
Stream size                              : 71.5 MiB (11%)
Language                                 : Turkish
Default                                  : No
Forced                                   : No


TRT Belgesel HD Kozmik Çarpışma BL 03 720p HDTvRip AC3 By SALCI TORK

Genişletmek için Tıkla!
06-05-2017 12:30 , SALCI Tarafından Yüklendi.
Kaynaklar: 2 / İndirilen: 0 / Boyut: 530.02 MB / Tamamlandı: 17
Torrenti İndir  Torrenti Şikayet Et Torrent Tanımı
Kategori: Belgesel
Kategori: TV Kayıtları > Belgesel

TRT Belgesel HD Kozmik Çarpışma BL 03 720p HDTvRip AC3 By SALCI TORK





Dünyanın sonu bir meteor çarpmasıyla mı gelecek? Dev göktaşı dünyaya çarpacak mı? Büyük meteorlar ve asteroitler, tehlikeli bir biçimde dünya yörüngesine oturuyor. Hatta bazıları, yakın bir gelecekte çarpmak için pozisyon alıyorlar. Nedir bunlar? Dünyaya nasıl bir zarar verecekler? Dev bir göktaşını durdurmak mümkün mü? Hayatta kalma şansımız var mı? Sorular çok… Cevapları Kozmik Çarpışmalar’da…



Genişlet Kod:
General
Unique ID : 224704521923673683598020070177567784333 (0xA90C844926C3A259958987D34DF9BD8D)
Complete name : E:\Belgeseller\TRT Belgesel HD Kozmik Çarpışma BL 03 720p HDTvRip AC3 By SALCI TORK.mkv
Format : Matroska
Format version : Version 4 / Version 2
File size : 530 MiB
Duration : 43mn 37s
Overall bit rate : 1 699 Kbps
Encoded date : UTC 2017-05-01 13:44:24
Writing application : mkvmerge v9.6.0 ('Slave To Your Mind') 64bit
Writing library : libebml v1.3.4 + libmatroska v1.4.5
DURATION : 00:43:37.248000000
NUMBER_OF_FRAMES : 81789
NUMBER_OF_BYTES : 62813952
_STATISTICS_WRITING_APP : mkvmerge v9.6.0 ('Slave To Your Mind') 64bit
_STATISTICS_WRITING_DATE_UTC : 2017-05-01 13:44:24
_STATISTICS_TAGS : BPS DURATION NUMBER_OF_FRAMES NUMBER_OF_BYTES
Video
ID : 1
Format : AVC
Format/Info : Advanced Video Codec
Format profile : High@L3.1
Format settings, CABAC : Yes
Format settings, ReFrames : 4 frames
Codec ID : V_MPEG4/ISO/AVC
Duration : 43mn 37s
Bit rate : 1 501 Kbps
Width : 1 280 pixels
Height : 720 pixels
Display aspect ratio : 16:9
Frame rate mode : Constant
Frame rate : 25.000 fps
Color space : YUV
Chroma subsampling : 4:2:0
Bit depth : 8 bits
Scan type : Progressive
Bits/(Pixel*Frame) : 0.065
Stream size : 460 MiB (87%)
Writing library : x264 core 148 r2721 72d53ab
Default : Yes
Forced : No
Audio
ID : 2
Format : AC-3
Format/Info : Audio Coding 3
Mode extension : CM (complete main)
Format settings, Endianness : Big
Codec ID : A_AC3
Duration : 43mn 37s
Bit rate mode : Constant
Bit rate : 192 Kbps
Channel(s) : 2 channels
Channel positions : Front: L R
Sampling rate : 48.0 KHz
Compression mode : Lossy
Stream size : 59.9 MiB (11%)
Language : Turkish
Default : No
Forced : No



web counter