TRT Gunduz Hayalet Binicileri-The Shadow Riders 1982 HDTvRip 720p AC3 by TheWelleTy TORK

Genişletmek için Tıkla!
Pazartesi saat 21:45 de , TheWelleTy Tarafından Yüklendi.
Kaynaklar: 5 / İndirilen: 0 / Boyut: 736.56 MB / Tamamlandı: 10
Torrenti İndir  Torrenti Şikayet Et Torrent Tanımı Tanıtım Videosu
IMDB Puanı: 6.8 6.8/10 Kategori: Western
Kategori: Yabancı Filmler > 720p
http://www.imdb.com/title/tt0084666/

TRT Gunduz Hayalet Binicileri-The Shadow Riders 1982 HDTvRip 720p AC3 by TheWelleTy TORK





Genişlet Kod:
General
Unique ID : 253364844203775471971720794072712386059 (0xBE9C4B4598A96B15BAF291DDC3E6960B)
Complete name : D:\TORK\TRT.Gunduz.Sinemasi.Hayalet.Biniciler.1982.HDTvRip.720p.AC3.by.TheWelleTy.TORK.mkv
Format : Matroska
Format version : Version 2
File size : 737 MiB
Duration : 1 h 31 min
Overall bit rate : 1 130 kb/s
Encoded date : UTC 2018-02-19 19:39:21
Writing application : mkvmerge v3.3.0 ('Language') built on Mar 24 2010 14:59:24
Writing library : libebml v0.8.0 + libmatroska v0.9.0
Video
ID : 1
Format : AVC
Format/Info : Advanced Video Codec
Format profile : High@L3.1
Format settings : CABAC / 4 Ref Frames
Format settings, CABAC : Yes
Format settings, ReFrames : 4 frames
Codec ID : V_MPEG4/ISO/AVC
Duration : 1 h 31 min
Bit rate : 999 kb/s
Width : 1 280 pixels
Height : 720 pixels
Display aspect ratio : 16:9
Frame rate mode : Constant
Frame rate : 25.000 FPS
Color space : YUV
Chroma subsampling : 4:2:0
Bit depth : 8 bits
Scan type : Progressive
Bits/(Pixel*Frame) : 0.043
Stream size : 638 MiB (87%)
Writing library : x264 core 128 r2216 198a7ea
Encoding settings : cabac=1 / ref=3 / deblock=1:-1:-1 / analyse=0x3:0x113 / me=hex / subme=7 / psy=1 / psy_rd=1.00:0.15 / mixed_ref=1 / me_range=16 / chroma_me=1 / trellis=1 / 8x8dct=1 / cqm=0 / deadzone=21,11 / fast_pskip=1 / chroma_qp_offset=-3 / threads=18 / lookahead_threads=3 / sliced_threads=0 / nr=0 / decimate=1 / interlaced=0 / bluray_compat=0 / constrained_intra=0 / bframes=3 / b_pyramid=2 / b_adapt=1 / b_bias=0 / direct=1 / weightb=1 / open_gop=0 / weightp=2 / keyint=250 / keyint_min=25 / scenecut=40 / intra_refresh=0 / rc_lookahead=40 / rc=abr / mbtree=1 / bitrate=999 / ratetol=1.0 / qcomp=0.60 / qpmin=0 / qpmax=69 / qpstep=4 / ip_ratio=1.40 / aq=1:1.00
Default : No
Forced : No
Audio
ID : 2
Format : AC-3
Format/Info : Audio Coding 3
Codec ID : A_AC3
Duration : 1 h 31 min
Bit rate mode : Constant
Bit rate : 128 kb/s
Channel(s) : 2 channels
Channel positions : Front: L R
Sampling rate : 48.0 kHz
Frame rate : 31.250 FPS (1536 SPF)
Bit depth : 16 bits
Compression mode : Lossy
Stream size : 83.5 MiB (11%)
Language : English
Service kind : Complete Main
Default : No
Forced : No



TRT Gunduz Sinemasi Colorado 1982 HDTvRip 720p AC3 by TheWelleTy TORK

Genişletmek için Tıkla!
Pazar saat 14:49 de , TheWelleTy Tarafından Yüklendi.
Kaynaklar: 5 / İndirilen: 0 / Boyut: 691.2 MB / Tamamlandı: 12
Torrenti İndir  Torrenti Şikayet Et Torrent Tanımı Tanıtım Videosu
IMDB Puanı: 6.8 6.8/10 Kategori: Aksiyon | Drama | Komedi | Western
Kategori: Yabancı Filmler > 720p
http://www.imdb.com/title/tt0084666/

TRT Gunduz Sinemasi Colorado 1982 HDTvRip 720p AC3 by TheWelleTy TORK





Genişlet Kod:
General
Unique ID : 187030049099248348658298979056325970163 (0x8CB4AD5D601B1749A7238610F01F48F3)
Complete name : D:\TORK\TRT.Gunduz.Sinemasi.Colorado.1940.HDTvRip.720p.AC3.by.TheWelleTy.TORK.mkv
Format : Matroska
Format version : Version 2
File size : 691 MiB
Duration : 1 h 25 min
Overall bit rate : 1 125 kb/s
Encoded date : UTC 2018-02-18 12:46:13
Writing application : mkvmerge v3.3.0 ('Language') built on Mar 24 2010 14:59:24
Writing library : libebml v0.8.0 + libmatroska v0.9.0
Video
ID : 1
Format : AVC
Format/Info : Advanced Video Codec
Format profile : High@L3.1
Format settings : CABAC / 4 Ref Frames
Format settings, CABAC : Yes
Format settings, ReFrames : 4 frames
Codec ID : V_MPEG4/ISO/AVC
Duration : 1 h 25 min
Bit rate : 1 000 kb/s
Width : 1 280 pixels
Height : 720 pixels
Display aspect ratio : 16:9
Frame rate mode : Constant
Frame rate : 25.000 FPS
Color space : YUV
Chroma subsampling : 4:2:0
Bit depth : 8 bits
Scan type : Progressive
Bits/(Pixel*Frame) : 0.043
Stream size : 599 MiB (87%)
Writing library : x264 core 128 r2216 198a7ea
Encoding settings : cabac=1 / ref=3 / deblock=1:-1:-1 / analyse=0x3:0x113 / me=hex / subme=7 / psy=1 / psy_rd=1.00:0.15 / mixed_ref=1 / me_range=16 / chroma_me=1 / trellis=1 / 8x8dct=1 / cqm=0 / deadzone=21,11 / fast_pskip=1 / chroma_qp_offset=-3 / threads=18 / lookahead_threads=3 / sliced_threads=0 / nr=0 / decimate=1 / interlaced=0 / bluray_compat=0 / constrained_intra=0 / bframes=3 / b_pyramid=2 / b_adapt=1 / b_bias=0 / direct=1 / weightb=1 / open_gop=0 / weightp=2 / keyint=250 / keyint_min=25 / scenecut=40 / intra_refresh=0 / rc_lookahead=40 / rc=abr / mbtree=1 / bitrate=1000 / ratetol=1.0 / qcomp=0.60 / qpmin=0 / qpmax=69 / qpstep=4 / ip_ratio=1.40 / aq=1:1.00
Default : No
Forced : No
Audio
ID : 2
Format : AC-3
Format/Info : Audio Coding 3
Codec ID : A_AC3
Duration : 1 h 25 min
Bit rate mode : Constant
Bit rate : 128 kb/s
Channel(s) : 2 channels
Channel positions : Front: L R
Sampling rate : 48.0 kHz
Frame rate : 31.250 FPS (1536 SPF)
Bit depth : 16 bits
Compression mode : Lossy
Stream size : 78.7 MiB (11%)
Language : English
Service kind : Complete Main
Default : No
Forced : No




TRT Gunduz Sinemasi İntikam Otesi-Ride Beyond Vengeance 1966 HDTvRip 720p AC3 by TheWelleTy TORK

Genişletmek için Tıkla!
10-02-2018 23:29 , TheWelleTy Tarafından Yüklendi.
Kaynaklar: 4 / İndirilen: 0 / Boyut: 776.35 MB / Tamamlandı: 18
Torrenti İndir  Torrenti Şikayet Et Torrent Tanımı Tanıtım Videosu
IMDB Puanı: 6.3 6.3/10 Kategori: Aksiyon | Western
Kategori: Yabancı Filmler > 720p
http://www.imdb.com/title/tt0060899/

TRT Gunduz Sinemasi İntikam Otesi-Ride Beyond Vengeance 1966 HDTvRip 720p AC3 by TheWelleTy TORK





Genişlet Kod:
General
Unique ID : 184239114083059106718084716881687161521 (0x8A9B29A500BBFAC7A7226C0593292AB1)
Complete name : D:\TORK\TRT.Gunduz.Sinemasi.Intikamin.Otesi.1966.HDTvRip.720p.AC3.by.TheWelleTy.TORK.mkv
Format : Matroska
Format version : Version 2
File size : 776 MiB
Duration : 1 h 35 min
Overall bit rate : 1 131 kb/s
Encoded date : UTC 2018-02-10 21:21:18
Writing application : mkvmerge v3.3.0 ('Language') built on Mar 24 2010 14:59:24
Writing library : libebml v0.8.0 + libmatroska v0.9.0
Video
ID : 1
Format : AVC
Format/Info : Advanced Video Codec
Format profile : High@L3.1
Format settings : CABAC / 4 Ref Frames
Format settings, CABAC : Yes
Format settings, ReFrames : 4 frames
Codec ID : V_MPEG4/ISO/AVC
Duration : 1 h 35 min
Bit rate : 1 000 kb/s
Width : 1 280 pixels
Height : 720 pixels
Display aspect ratio : 16:9
Frame rate mode : Constant
Frame rate : 25.000 FPS
Color space : YUV
Chroma subsampling : 4:2:0
Bit depth : 8 bits
Scan type : Progressive
Bits/(Pixel*Frame) : 0.043
Stream size : 673 MiB (87%)
Writing library : x264 core 128 r2216 198a7ea
Encoding settings : cabac=1 / ref=3 / deblock=1:-1:-1 / analyse=0x3:0x113 / me=hex / subme=7 / psy=1 / psy_rd=1.00:0.15 / mixed_ref=1 / me_range=16 / chroma_me=1 / trellis=1 / 8x8dct=1 / cqm=0 / deadzone=21,11 / fast_pskip=1 / chroma_qp_offset=-3 / threads=18 / lookahead_threads=3 / sliced_threads=0 / nr=0 / decimate=1 / interlaced=0 / bluray_compat=0 / constrained_intra=0 / bframes=3 / b_pyramid=2 / b_adapt=1 / b_bias=0 / direct=1 / weightb=1 / open_gop=0 / weightp=2 / keyint=250 / keyint_min=25 / scenecut=40 / intra_refresh=0 / rc_lookahead=40 / rc=abr / mbtree=1 / bitrate=1000 / ratetol=1.0 / qcomp=0.60 / qpmin=0 / qpmax=69 / qpstep=4 / ip_ratio=1.40 / aq=1:1.00
Default : No
Forced : No
Audio
ID : 2
Format : AC-3
Format/Info : Audio Coding 3
Codec ID : A_AC3
Duration : 1 h 35 min
Bit rate mode : Constant
Bit rate : 128 kb/s
Channel(s) : 2 channels
Channel positions : Front: L R
Sampling rate : 48.0 kHz
Frame rate : 31.250 FPS (1536 SPF)
Bit depth : 16 bits
Compression mode : Lossy
Stream size : 87.8 MiB (11%)
Language : English
Service kind : Complete Main
Default : No
Forced : No




TRT Gunduz Sinemasi Uc Sert Adam-Three Violent People 1956 HDTvRip 720p AC3 by TheWelleTy TORK

Genişletmek için Tıkla!
27-01-2018 13:58 , TheWelleTy Tarafından Yüklendi.
Kaynaklar: 2 / İndirilen: 0 / Boyut: 773.3 MB / Tamamlandı: 18
Torrenti İndir  Torrenti Şikayet Et Torrent Tanımı Tanıtım Videosu
IMDB Puanı: 6.4 6.4/10 Kategori: Western
Kategori: Yabancı Filmler > 720p
http://www.imdb.com/title/tt0049849/

TRT Gunduz Sinemasi Uc Sert Adam-Three Violent People 1956 HDTvRip 720p AC3 by TheWelleTy TORK





Genişlet Kod:
General
Unique ID : 207746384606920075692479228772645897296 (0x9C4A7F90474D071697E8253C12E48450)
Complete name : D:\TORK\TRT.Gunduz.Sinemasi.Uc.Sert.Adam.1956.HDTvRip.720p.AC3.by.TheWelleTy.TORK.mkv
Format : Matroska
Format version : Version 2
File size : 773 MiB
Duration : 1 h 35 min
Overall bit rate : 1 129 kb/s
Encoded date : UTC 2018-01-27 11:27:58
Writing application : mkvmerge v3.3.0 ('Language') built on Mar 24 2010 14:59:24
Writing library : libebml v0.8.0 + libmatroska v0.9.0
Video
ID : 1
Format : AVC
Format/Info : Advanced Video Codec
Format profile : High@L3.1
Format settings : CABAC / 4 Ref Frames
Format settings, CABAC : Yes
Format settings, ReFrames : 4 frames
Codec ID : V_MPEG4/ISO/AVC
Duration : 1 h 35 min
Bit rate : 1 001 kb/s
Width : 1 280 pixels
Height : 720 pixels
Display aspect ratio : 16:9
Frame rate mode : Constant
Frame rate : 25.000 FPS
Color space : YUV
Chroma subsampling : 4:2:0
Bit depth : 8 bits
Scan type : Progressive
Bits/(Pixel*Frame) : 0.043
Stream size : 670 MiB (87%)
Writing library : x264 core 133 r2334 a3ac64b
Encoding settings : cabac=1 / ref=3 / deblock=1:-1:-1 / analyse=0x3:0x113 / me=hex / subme=7 / psy=1 / psy_rd=1.00:0.15 / mixed_ref=1 / me_range=16 / chroma_me=1 / trellis=1 / 8x8dct=1 / cqm=0 / deadzone=21,11 / fast_pskip=1 / chroma_qp_offset=-3 / threads=18 / lookahead_threads=3 / sliced_threads=0 / nr=0 / decimate=1 / interlaced=0 / bluray_compat=0 / constrained_intra=0 / bframes=3 / b_pyramid=2 / b_adapt=1 / b_bias=0 / direct=1 / weightb=1 / open_gop=0 / weightp=2 / keyint=250 / keyint_min=25 / scenecut=40 / intra_refresh=0 / rc_lookahead=40 / rc=abr / mbtree=1 / bitrate=1001 / ratetol=1.0 / qcomp=0.60 / qpmin=0 / qpmax=69 / qpstep=4 / ip_ratio=1.40 / aq=1:1.00
Default : No
Forced : No
Audio
ID : 2
Format : AC-3
Format/Info : Audio Coding 3
Codec ID : A_AC3
Duration : 1 h 35 min
Bit rate mode : Constant
Bit rate : 128 kb/s
Channel(s) : 2 channels
Channel positions : Front: L R
Sampling rate : 48.0 kHz
Frame rate : 31.250 FPS (1536 SPF)
Bit depth : 16 bits
Compression mode : Lossy
Stream size : 87.7 MiB (11%)
Language : English
Service kind : Complete Main
Default : No
Forced : No




TRT Gunduz Sinemasi Kotu Arkadaslar-Bad Company 1972 HDTvRip 720p AC3 by TheWelleTy TORK

Genişletmek için Tıkla!
01-01-2018 20:15 , TheWelleTy Tarafından Yüklendi.
Kaynaklar: 3 / İndirilen: 0 / Boyut: 671.83 MB / Tamamlandı: 15
Torrenti İndir  Torrenti Şikayet Et Torrent Tanımı Tanıtım Videosu
IMDB Puanı: 7.1 7.1/10 Kategori: Drama | Macera
Kategori: Yabancı Filmler > 720p
http://www.imdb.com/title/tt0068245/

TRT Gunduz Sinemasi Kotu Arkadaslar-Bad Company 1972 HDTvRip 720p AC3 by TheWelleTy TORK





Genişlet Kod:
General
Unique ID                   : 254280315278552413918331697029043765701 (0xBF4C9B7B0C61FCDCBB8033B705ECC1C5)
Complete name               : D:\TORK\TRT.Gunduz.Sinemasi.Kotu.Arkadaslar.1972.HDTvRip.720p.AC3.by.TheWelleTy.TORK.mkv
Format                      : Matroska
Format version              : Version 2
File size                   : 672 MiB
Duration                    : 1 h 23 min
Overall bit rate            : 1 124 kb/s
Encoded date                : UTC 2018-01-01 18:10:54
Writing application         : mkvmerge v3.3.0 ('Language') built on Mar 24 2010 14:59:24
Writing library             : libebml v0.8.0 + libmatroska v0.9.0

Video
ID                          : 1
Format                      : AVC
Format/Info                 : Advanced Video Codec
Format profile              : High@L3.1
Format settings, CABAC      : Yes
Format settings, RefFrames  : 4 frames
Codec ID                    : V_MPEG4/ISO/AVC
Duration                    : 1 h 23 min
Bit rate                    : 1 000 kb/s
Width                       : 1 280 pixels
Height                      : 720 pixels
Display aspect ratio        : 16:9
Frame rate mode             : Constant
Frame rate                  : 25.000 FPS
Color space                 : YUV
Chroma subsampling          : 4:2:0
Bit depth                   : 8 bits
Scan type                   : Progressive
Bits/(Pixel*Frame)          : 0.043
Stream size                 : 582 MiB (87%)
Writing library             : x264 core 133 r2334 a3ac64b
Encoding settings           : cabac=1 / ref=3 / deblock=1:-1:-1 / analyse=0x3:0x113 / me=hex / subme=7 / psy=1 / psy_rd=1.00:0.15 / mixed_ref=1 / me_range=16 / chroma_me=1 / trellis=1 / 8x8dct=1 / cqm=0 / deadzone=21,11 / fast_pskip=1 / chroma_qp_offset=-3 / threads=18 / lookahead_threads=3 / sliced_threads=0 / nr=0 / decimate=1 / interlaced=0 / bluray_compat=0 / constrained_intra=0 / bframes=3 / b_pyramid=2 / b_adapt=1 / b_bias=0 / direct=1 / weightb=1 / open_gop=0 / weightp=2 / keyint=250 / keyint_min=25 / scenecut=40 / intra_refresh=0 / rc_lookahead=40 / rc=abr / mbtree=1 / bitrate=1000 / ratetol=1.0 / qcomp=0.60 / qpmin=0 / qpmax=69 / qpstep=4 / ip_ratio=1.40 / aq=1:1.00
Default                     : No
Forced                      : No

Audio
ID                          : 2
Format                      : AC-3
Format/Info                 : Audio Coding 3
Format settings, Endianness : Big
Codec ID                    : A_AC3
Duration                    : 1 h 23 min
Bit rate mode               : Constant
Bit rate                    : 128 kb/s
Channel(s)                  : 2 channels
Channel positions           : Front: L R
Sampling rate               : 48.0 kHz
Frame rate                  : 31.250 FPS (1536 SPF)
Bit depth                   : 16 bits
Compression mode            : Lossy
Stream size                 : 76.5 MiB (11%)
Language                    : English
Service kind                : Complete Main
Default                     : No
Forced                      : No




TRT Gunduz Sinemasi Kin Tuzagi-Big Jake 1971 HDTvRip 720p AC3 by TheWelleTy TORK

Genişletmek için Tıkla!
24-12-2017 22:15 , TheWelleTy Tarafından Yüklendi.
Kaynaklar: 4 / İndirilen: 0 / Boyut: 839.55 MB / Tamamlandı: 20
Torrenti İndir  Torrenti Şikayet Et Torrent Tanımı Tanıtım Videosu
IMDB Puanı: 7.2 7.2/10 Kategori: Tarihi
Kategori: Yabancı Filmler > 720p
http://www.imdb.com/title/tt0066831/

TRT Gunduz Sinemasi Kin Tuzagi-Big Jake 1971 HDTvRip 720p AC3 by TheWelleTy TORK





Genişlet Kod:
General
Unique ID : 247997564920435039104430953120378851020 (0xBA9297F8E450B422B14C00D6A5070ECC)
Complete name : D:\TORK\TRT.Gunduz.Sinemasi.Kin.Tuzagi.1971.HDTvRip.720p.AC3.by.TheWelleTy.TORK.mkv
Format : Matroska
Format version : Version 2
File size : 840 MiB
Duration : 1 h 44 min
Overall bit rate : 1 123 kb/s
Encoded date : UTC 2017-12-24 20:10:58
Writing application : mkvmerge v3.3.0 ('Language') built on Mar 24 2010 14:59:24
Writing library : libebml v0.8.0 + libmatroska v0.9.0
Video
ID : 1
Format : AVC
Format/Info : Advanced Video Codec
Format profile : High@L3.1
Format settings, CABAC : Yes
Format settings, RefFrames : 4 frames
Codec ID : V_MPEG4/ISO/AVC
Duration : 1 h 44 min
Bit rate : 1 000 kb/s
Width : 1 280 pixels
Height : 720 pixels
Display aspect ratio : 16:9
Frame rate mode : Constant
Frame rate : 25.000 FPS
Color space : YUV
Chroma subsampling : 4:2:0
Bit depth : 8 bits
Scan type : Progressive
Bits/(Pixel*Frame) : 0.043
Stream size : 727 MiB (87%)
Writing library : x264 core 128 r2216 198a7ea
Encoding settings : cabac=1 / ref=3 / deblock=1:-1:-1 / analyse=0x3:0x113 / me=hex / subme=7 / psy=1 / psy_rd=1.00:0.15 / mixed_ref=1 / me_range=16 / chroma_me=1 / trellis=1 / 8x8dct=1 / cqm=0 / deadzone=21,11 / fast_pskip=1 / chroma_qp_offset=-3 / threads=18 / lookahead_threads=3 / sliced_threads=0 / nr=0 / decimate=1 / interlaced=0 / bluray_compat=0 / constrained_intra=0 / bframes=3 / b_pyramid=2 / b_adapt=1 / b_bias=0 / direct=1 / weightb=1 / open_gop=0 / weightp=2 / keyint=250 / keyint_min=25 / scenecut=40 / intra_refresh=0 / rc_lookahead=40 / rc=abr / mbtree=1 / bitrate=1000 / ratetol=1.0 / qcomp=0.60 / qpmin=0 / qpmax=69 / qpstep=4 / ip_ratio=1.40 / aq=1:1.00
Default : No
Forced : No
Audio
ID : 2
Format : AC-3
Format/Info : Audio Coding 3
Format settings, Endianness : Big
Codec ID : A_AC3
Duration : 1 h 44 min
Bit rate mode : Constant
Bit rate : 128 kb/s
Channel(s) : 2 channels
Channel positions : Front: L R
Sampling rate : 48.0 kHz
Frame rate : 31.250 FPS (1536 SPF)
Bit depth : 16 bits
Compression mode : Lossy
Stream size : 95.7 MiB (11%)
Language : English
Service kind : Complete Main
Default : No
Forced : No




TRT Gunduz Sinemasi Kumar ve Olum 1968 HDTvRip 720p AC3 by TheWelleTy TORK

Genişletmek için Tıkla!
18-12-2017 23:10 , TheWelleTy Tarafından Yüklendi.
Kaynaklar: 3 / İndirilen: 0 / Boyut: 796.06 MB / Tamamlandı: 17
Torrenti İndir  Torrenti Şikayet Et Torrent Tanımı Tanıtım Videosu
IMDB Puanı: 6.6 6.6/10 Kategori: Gizem | Romantik
Kategori: Yabancı Filmler > 720p
http://www.imdb.com/title/tt0062626/

TRT Gunduz Sinemasi Kumar ve Olum 1968 HDTvRip 720p AC3 by TheWelleTy TORK





Genişlet Kod:
General
Unique ID : 188216006291815178972551304374410151312 (0x8D9915919B6C30CF85E2878979C60590)
Complete name : D:\TORK\TRT.Gunduz.Sinemasi.Kumar.ve.Olum1968.HDTvRip.720p.AC3.by.TheWelleTy.TORK.mkv
Format : Matroska
Format version : Version 2
File size : 796 MiB
Duration : 1 h 38 min
Overall bit rate : 1 133 kb/s
Encoded date : UTC 2017-12-18 21:04:33
Writing application : mkvmerge v3.3.0 ('Language') built on Mar 24 2010 14:59:24
Writing library : libebml v0.8.0 + libmatroska v0.9.0
Video
ID : 1
Format : AVC
Format/Info : Advanced Video Codec
Format profile : High@L3.1
Format settings, CABAC : Yes
Format settings, RefFrames : 4 frames
Codec ID : V_MPEG4/ISO/AVC
Duration : 1 h 38 min
Bit rate : 1 000 kb/s
Width : 1 280 pixels
Height : 720 pixels
Display aspect ratio : 16:9
Frame rate mode : Constant
Frame rate : 25.000 FPS
Color space : YUV
Chroma subsampling : 4:2:0
Bit depth : 8 bits
Scan type : Progressive
Bits/(Pixel*Frame) : 0.043
Stream size : 690 MiB (87%)
Writing library : x264 core 133 r2334 a3ac64b
Encoding settings : cabac=1 / ref=3 / deblock=1:-1:-1 / analyse=0x3:0x113 / me=hex / subme=7 / psy=1 / psy_rd=1.00:0.15 / mixed_ref=1 / me_range=16 / chroma_me=1 / trellis=1 / 8x8dct=1 / cqm=0 / deadzone=21,11 / fast_pskip=1 / chroma_qp_offset=-3 / threads=18 / lookahead_threads=3 / sliced_threads=0 / nr=0 / decimate=1 / interlaced=0 / bluray_compat=0 / constrained_intra=0 / bframes=3 / b_pyramid=2 / b_adapt=1 / b_bias=0 / direct=1 / weightb=1 / open_gop=0 / weightp=2 / keyint=250 / keyint_min=25 / scenecut=40 / intra_refresh=0 / rc_lookahead=40 / rc=abr / mbtree=1 / bitrate=1000 / ratetol=1.0 / qcomp=0.60 / qpmin=0 / qpmax=69 / qpstep=4 / ip_ratio=1.40 / aq=1:1.00
Default : No
Forced : No
Audio
ID : 2
Format : AC-3
Format/Info : Audio Coding 3
Format settings, Endianness : Big
Codec ID : A_AC3
Duration : 1 h 38 min
Bit rate mode : Constant
Bit rate : 128 kb/s
Channel(s) : 2 channels
Channel positions : Front: L R
Sampling rate : 48.0 kHz
Frame rate : 31.250 FPS (1536 SPF)
Bit depth : 16 bits
Compression mode : Lossy
Stream size : 89.9 MiB (11%)
Language : English
Service kind : Complete Main
Default : No
Forced : No




TRT Gunduz Sinemasi Takim-Posse 1975 HDTvRip 720p AC3 by TheWelleTy TORK

Genişletmek için Tıkla!
12-12-2017 23:06 , TheWelleTy Tarafından Yüklendi.
Kaynaklar: 2 / İndirilen: 0 / Boyut: 702.54 MB / Tamamlandı: 18
Torrenti İndir  Torrenti Şikayet Et Torrent Tanımı Tanıtım Videosu
IMDB Puanı: 6.6 6.6/10
Kategori: Yabancı Filmler > 720p
http://www.imdb.com/title/tt0073559/

TRT Gunduz Sinemasi Takim-Posse 1975 HDTvRip 720p AC3 by TheWelleTy TORK





Açiklama : Marksiz bir siyaset mareşali ve milletvekilleri, liderlerinin her insanın fiyata sahip olduğunu kanıtlayan bir tren soyguncularının çetesini takip ediyor.



Genişlet Kod:
General
Unique ID : 201649139455109453602283653205072345108 (0x97B4362B006456CEA0EBEA398704F814)
Complete name : D:\TORK\TRT.Gunduz.Sinemasi.Takim.1975.HDTvRip.720p.AC3.by.TheWelleTy.TORK.mkv
Format : Matroska
Format version : Version 2
File size : 703 MiB
Duration : 1 h 27 min
Overall bit rate : 1 128 kb/s
Encoded date : UTC 2017-12-12 21:02:42
Writing application : mkvmerge v3.3.0 ('Language') built on Mar 24 2010 14:59:24
Writing library : libebml v0.8.0 + libmatroska v0.9.0
Video
ID : 1
Format : AVC
Format/Info : Advanced Video Codec
Format profile : High@L3.1
Format settings, CABAC : Yes
Format settings, RefFrames : 4 frames
Codec ID : V_MPEG4/ISO/AVC
Duration : 1 h 27 min
Bit rate : 1 001 kb/s
Width : 1 280 pixels
Height : 720 pixels
Display aspect ratio : 16:9
Frame rate mode : Constant
Frame rate : 25.000 FPS
Color space : YUV
Chroma subsampling : 4:2:0
Bit depth : 8 bits
Scan type : Progressive
Bits/(Pixel*Frame) : 0.043
Stream size : 609 MiB (87%)
Writing library : x264 core 133 r2334 a3ac64b
Encoding settings : cabac=1 / ref=3 / deblock=1:-1:-1 / analyse=0x3:0x113 / me=hex / subme=7 / psy=1 / psy_rd=1.00:0.15 / mixed_ref=1 / me_range=16 / chroma_me=1 / trellis=1 / 8x8dct=1 / cqm=0 / deadzone=21,11 / fast_pskip=1 / chroma_qp_offset=-3 / threads=18 / lookahead_threads=3 / sliced_threads=0 / nr=0 / decimate=1 / interlaced=0 / bluray_compat=0 / constrained_intra=0 / bframes=3 / b_pyramid=2 / b_adapt=1 / b_bias=0 / direct=1 / weightb=1 / open_gop=0 / weightp=2 / keyint=250 / keyint_min=25 / scenecut=40 / intra_refresh=0 / rc_lookahead=40 / rc=abr / mbtree=1 / bitrate=1001 / ratetol=1.0 / qcomp=0.60 / qpmin=0 / qpmax=69 / qpstep=4 / ip_ratio=1.40 / aq=1:1.00
Default : No
Forced : No
Audio
ID : 2
Format : AC-3
Format/Info : Audio Coding 3
Format settings, Endianness : Big
Codec ID : A_AC3
Duration : 1 h 27 min
Bit rate mode : Constant
Bit rate : 128 kb/s
Channel(s) : 2 channels
Channel positions : Front: L R
Sampling rate : 48.0 kHz
Frame rate : 31.250 FPS (1536 SPF)
Bit depth : 16 bits
Compression mode : Lossy
Stream size : 79.7 MiB (11%)
Language : English
Service kind : Complete Main
Default : No
Forced : No




TRT Gunduz Sinemasi Korkunc Kumpanya 1960 HDTvRip 720p AC3 by TheWelleTy TORK

Genişletmek için Tıkla!
06-12-2017 23:21 , TheWelleTy Tarafından Yüklendi.
Kaynaklar: 3 / İndirilen: 0 / Boyut: 762.73 MB / Tamamlandı: 25
Torrenti İndir  Torrenti Şikayet Et Torrent Tanımı Tanıtım Videosu
IMDB Puanı: 6.1 6.1/10 Kategori: Drama | Macera
Kategori: Yabancı Filmler > 720p
http://www.imdb.com/title/tt0053902/

TRT Gunduz Sinemasi Korkunc Kumpanya 1960 HDTvRip 720p AC3 by TheWelleTy TORK





Genişlet Kod:
General
Unique ID : 245153952783166372331885134684795962705 (0xB86EEF11C6CF956A8379DDE74E700551)
Complete name : D:\TORK\TRT.Gunduz.Sinemasi.Korkunc.Kumpanya.1960.HDTvRip.720p.AC3.by.TheWelleTy.TORK.mkv
Format : Matroska
Format version : Version 2
File size : 763 MiB
Duration : 1 h 35 min
Overall bit rate : 1 120 kb/s
Encoded date : UTC 2017-12-06 21:09:27
Writing application : mkvmerge v3.3.0 ('Language') built on Mar 24 2010 14:59:24
Writing library : libebml v0.8.0 + libmatroska v0.9.0
Video
ID : 1
Format : AVC
Format/Info : Advanced Video Codec
Format profile : High@L3.1
Format settings, CABAC : Yes
Format settings, RefFrames : 4 frames
Codec ID : V_MPEG4/ISO/AVC
Duration : 1 h 35 min
Bit rate : 1 000 kb/s
Width : 1 280 pixels
Height : 720 pixels
Display aspect ratio : 16:9
Frame rate mode : Constant
Frame rate : 25.000 FPS
Color space : YUV
Chroma subsampling : 4:2:0
Bit depth : 8 bits
Scan type : Progressive
Bits/(Pixel*Frame) : 0.043
Stream size : 660 MiB (87%)
Writing library : x264 core 133 r2334 a3ac64b
Encoding settings : cabac=1 / ref=3 / deblock=1:-1:-1 / analyse=0x3:0x113 / me=hex / subme=7 / psy=1 / psy_rd=1.00:0.15 / mixed_ref=1 / me_range=16 / chroma_me=1 / trellis=1 / 8x8dct=1 / cqm=0 / deadzone=21,11 / fast_pskip=1 / chroma_qp_offset=-3 / threads=18 / lookahead_threads=3 / sliced_threads=0 / nr=0 / decimate=1 / interlaced=0 / bluray_compat=0 / constrained_intra=0 / bframes=3 / b_pyramid=2 / b_adapt=1 / b_bias=0 / direct=1 / weightb=1 / open_gop=0 / weightp=2 / keyint=250 / keyint_min=25 / scenecut=40 / intra_refresh=0 / rc_lookahead=40 / rc=abr / mbtree=1 / bitrate=1000 / ratetol=1.0 / qcomp=0.60 / qpmin=0 / qpmax=69 / qpstep=4 / ip_ratio=1.40 / aq=1:1.00
Default : No
Forced : No
Audio
ID : 2
Format : AC-3
Format/Info : Audio Coding 3
Format settings, Endianness : Big
Codec ID : A_AC3
Duration : 1 h 35 min
Bit rate mode : Constant
Bit rate : 128 kb/s
Channel(s) : 2 channels
Channel positions : Front: L R
Sampling rate : 48.0 kHz
Frame rate : 31.250 FPS (1536 SPF)
Bit depth : 16 bits
Compression mode : Lossy
Stream size : 87.2 MiB (11%)
Language : English
Service kind : Complete Main
Default : No
Forced : No




TRT Gunduz Sinemasi Vahsi Mucadele 1957 HDTvRip 720p AC3 by TheWelleTy TORK

Genişletmek için Tıkla!
27-11-2017 11:19 , TheWelleTy Tarafından Yüklendi.
Kaynaklar: 4 / İndirilen: 0 / Boyut: 948.66 MB / Tamamlandı: 28
Torrenti İndir  Torrenti Şikayet Et Torrent Tanımı Tanıtım Videosu
IMDB Puanı: 7.2 7.2/10
Kategori: Yabancı Filmler > 720p
http://www.imdb.com/title/tt0050468/

TRT Gunduz Sinemasi Vahsi Mucadele 1957 HDTvRip 720p AC3 by TheWelleTy TORK





Genişlet Kod:
General
Unique ID : 188790176532113064561245595896808063382 (0x8E07AA58E53383C783729E7266ADC196)
Complete name : D:\TORK\TRT.Gunduz.Sinemasi.Vahsi.Mucadele.1957.HDTvRip.720p.AC3.by.TheWelleTy.TORK.mkv
Format : Matroska
Format version : Version 2
File size : 949 MiB
Duration : 1 h 57 min
Overall bit rate : 1 132 kb/s
Encoded date : UTC 2017-11-27 09:14:09
Writing application : mkvmerge v3.3.0 ('Language') built on Mar 24 2010 14:59:24
Writing library : libebml v0.8.0 + libmatroska v0.9.0
Video
ID : 1
Format : AVC
Format/Info : Advanced Video Codec
Format profile : High@L3.1
Format settings, CABAC : Yes
Format settings, RefFrames : 4 frames
Codec ID : V_MPEG4/ISO/AVC
Duration : 1 h 57 min
Bit rate : 1 000 kb/s
Width : 1 280 pixels
Height : 720 pixels
Display aspect ratio : 16:9
Frame rate mode : Constant
Frame rate : 25.000 FPS
Color space : YUV
Chroma subsampling : 4:2:0
Bit depth : 8 bits
Scan type : Progressive
Bits/(Pixel*Frame) : 0.043
Stream size : 823 MiB (87%)
Writing library : x264 core 133 r2334 a3ac64b
Encoding settings : cabac=1 / ref=3 / deblock=1:-1:-1 / analyse=0x3:0x113 / me=hex / subme=7 / psy=1 / psy_rd=1.00:0.15 / mixed_ref=1 / me_range=16 / chroma_me=1 / trellis=1 / 8x8dct=1 / cqm=0 / deadzone=21,11 / fast_pskip=1 / chroma_qp_offset=-3 / threads=18 / lookahead_threads=3 / sliced_threads=0 / nr=0 / decimate=1 / interlaced=0 / bluray_compat=0 / constrained_intra=0 / bframes=3 / b_pyramid=2 / b_adapt=1 / b_bias=0 / direct=1 / weightb=1 / open_gop=0 / weightp=2 / keyint=250 / keyint_min=25 / scenecut=40 / intra_refresh=0 / rc_lookahead=40 / rc=abr / mbtree=1 / bitrate=1000 / ratetol=1.0 / qcomp=0.60 / qpmin=0 / qpmax=69 / qpstep=4 / ip_ratio=1.40 / aq=1:1.00
Default : No
Forced : No
Audio
ID : 2
Format : AC-3
Format/Info : Audio Coding 3
Format settings, Endianness : Big
Codec ID : A_AC3
Duration : 1 h 57 min
Bit rate mode : Constant
Bit rate : 128 kb/s
Channel(s) : 2 channels
Channel positions : Front: L R
Sampling rate : 48.0 kHz
Frame rate : 31.250 FPS (1536 SPF)
Bit depth : 16 bits
Compression mode : Lossy
Stream size : 107 MiB (11%)
Language : English
Service kind : Complete Main
Default : No
Forced : No




web counter