Survivor 2018 Unluler Gonulluler 20.02.2018 HDTvRip 720p AC3 by TheWelleTy TORK

Genişletmek için Tıkla!
Dün Saat: 23:40 , TheWelleTy Tarafından Yüklendi.
Kaynaklar: 14 / İndirilen: 0 / Boyut: 940.78 MB / Tamamlandı: 26
Torrenti İndir  Torrenti Şikayet Et Torrent Tanımı
Kategori: Aksiyon
Kategori: TV Kayıtları > Yerli / Dizi

Survivor 2018 Unluler Gonulluler 20.02.2018 HDTvRip 720p AC3 by TheWelleTy TORK





Genişlet Kod:
General
Unique ID                   : 209784707321623176697460187755513640170 (0x9DD310A1E87DE398A0620CC795A3F4EA)
Complete name               : D:\TORK\Survivor.2018.Unluler.Gonulluler.20.02.2018.HDTvRip.720p.AC3.by.TheWelleTy.TORK.mkv
Format                      : Matroska
Format version              : Version 2
File size                   : 941 MiB
Duration                    : 1 h 55 min
Overall bit rate            : 1 135 kb/s
Encoded date                : UTC 2018-02-20 21:38:33
Writing application         : mkvmerge v3.3.0 ('Language') built on Mar 24 2010 14:59:24
Writing library             : libebml v0.8.0 + libmatroska v0.9.0

Video
ID                          : 1
Format                      : AVC
Format/Info                 : Advanced Video Codec
Format profile              : High@L3.1
Format settings             : CABAC / 4 Ref Frames
Format settings, CABAC      : Yes
Format settings, ReFrames   : 4 frames
Codec ID                    : V_MPEG4/ISO/AVC
Duration                    : 1 h 55 min
Bit rate                    : 1 000 kb/s
Width                       : 1 280 pixels
Height                      : 720 pixels
Display aspect ratio        : 16:9
Frame rate mode             : Constant
Frame rate                  : 25.000 FPS
Color space                 : YUV
Chroma subsampling          : 4:2:0
Bit depth                   : 8 bits
Scan type                   : Progressive
Bits/(Pixel*Frame)          : 0.043
Stream size                 : 816 MiB (87%)
Writing library             : x264 core 128 r2216 198a7ea
Encoding settings           : cabac=1 / ref=3 / deblock=1:-1:-1 / analyse=0x3:0x113 / me=hex / subme=7 / psy=1 / psy_rd=1.00:0.15 / mixed_ref=1 / me_range=16 / chroma_me=1 / trellis=1 / 8x8dct=1 / cqm=0 / deadzone=21,11 / fast_pskip=1 / chroma_qp_offset=-3 / threads=18 / lookahead_threads=3 / sliced_threads=0 / nr=0 / decimate=1 / interlaced=0 / bluray_compat=0 / constrained_intra=0 / bframes=3 / b_pyramid=2 / b_adapt=1 / b_bias=0 / direct=1 / weightb=1 / open_gop=0 / weightp=2 / keyint=250 / keyint_min=25 / scenecut=40 / intra_refresh=0 / rc_lookahead=40 / rc=abr / mbtree=1 / bitrate=1000 / ratetol=1.0 / qcomp=0.60 / qpmin=0 / qpmax=69 / qpstep=4 / ip_ratio=1.40 / aq=1:1.00
Default                     : No
Forced                      : No

Audio
ID                          : 2
Format                      : AC-3
Format/Info                 : Audio Coding 3
Codec ID                    : A_AC3
Duration                    : 1 h 55 min
Bit rate mode               : Constant
Bit rate                    : 128 kb/s
Channel(s)                  : 2 channels
Channel positions           : Front: L R
Sampling rate               : 48.0 kHz
Frame rate                  : 31.250 FPS (1536 SPF)
Bit depth                   : 16 bits
Compression mode            : Lossy
Stream size                 : 106 MiB (11%)
Language                    : English
Service kind                : Complete Main
Default                     : No
Forced                      : No









Eskiya Dunyaya Hukumdar Olmaz BL 91 HDTvRip 720p AC3 by TheWelleTy TORK

Genişletmek için Tıkla!
Dün Saat: 23:37 , TheWelleTy Tarafından Yüklendi.
Kaynaklar: 40 / İndirilen: 2 / Boyut: 1.19 GB / Tamamlandı: 73
Torrenti İndir  Torrenti Şikayet Et Torrent Tanımı Tanıtım Videosu
IMDB Puanı: 7.1 7.1/10 Kategori: Aksiyon | Suç
Kategori: TV Kayıtları > Yerli / Dizi
http://www.imdb.com/title/tt5175270/

Eskiya Dunyaya Hukumdar Olmaz BL 91 HDTvRip 720p AC3 by TheWelleTy TORK





Genişlet Kod:
General
Unique ID                   : 252665983204174642368433645458776786549 (0xBE15B2C3A9FE2ECE953A23FA43DA0675)
Complete name               : D:\TORK\Eskiya.Dunyaya.Hukumdar.Olmaz.BL.91.HDTvRip.720p.AC3.by.TheWelleTy.TORK.mkv
Format                      : Matroska
Format version              : Version 2
File size                   : 1.19 GiB
Duration                    : 2 h 30 min
Overall bit rate            : 1 129 kb/s
Encoded date                : UTC 2018-02-20 21:35:07
Writing application         : mkvmerge v3.3.0 ('Language') built on Mar 24 2010 14:59:24
Writing library             : libebml v0.8.0 + libmatroska v0.9.0

Video
ID                          : 1
Format                      : AVC
Format/Info                 : Advanced Video Codec
Format profile              : High@L3.1
Format settings             : CABAC / 4 Ref Frames
Format settings, CABAC      : Yes
Format settings, ReFrames   : 4 frames
Codec ID                    : V_MPEG4/ISO/AVC
Duration                    : 2 h 30 min
Bit rate                    : 998 kb/s
Width                       : 1 280 pixels
Height                      : 720 pixels
Display aspect ratio        : 16:9
Frame rate mode             : Constant
Frame rate                  : 25.000 FPS
Color space                 : YUV
Chroma subsampling          : 4:2:0
Bit depth                   : 8 bits
Scan type                   : Progressive
Bits/(Pixel*Frame)          : 0.043
Stream size                 : 1.03 GiB (87%)
Writing library             : x264 core 128 r2216 198a7ea
Encoding settings           : cabac=1 / ref=3 / deblock=1:-1:-1 / analyse=0x3:0x113 / me=hex / subme=7 / psy=1 / psy_rd=1.00:0.15 / mixed_ref=1 / me_range=16 / chroma_me=1 / trellis=1 / 8x8dct=1 / cqm=0 / deadzone=21,11 / fast_pskip=1 / chroma_qp_offset=-3 / threads=18 / lookahead_threads=3 / sliced_threads=0 / nr=0 / decimate=1 / interlaced=0 / bluray_compat=0 / constrained_intra=0 / bframes=3 / b_pyramid=2 / b_adapt=1 / b_bias=0 / direct=1 / weightb=1 / open_gop=0 / weightp=2 / keyint=250 / keyint_min=25 / scenecut=40 / intra_refresh=0 / rc_lookahead=40 / rc=abr / mbtree=1 / bitrate=998 / ratetol=1.0 / qcomp=0.60 / qpmin=0 / qpmax=69 / qpstep=4 / ip_ratio=1.40 / aq=1:1.00
Default                     : No
Forced                      : No

Audio
ID                          : 2
Format                      : AC-3
Format/Info                 : Audio Coding 3
Codec ID                    : A_AC3
Duration                    : 2 h 30 min
Bit rate mode               : Constant
Bit rate                    : 128 kb/s
Channel(s)                  : 2 channels
Channel positions           : Front: L R
Sampling rate               : 48.0 kHz
Frame rate                  : 31.250 FPS (1536 SPF)
Bit depth                   : 16 bits
Compression mode            : Lossy
Stream size                 : 138 MiB (11%)
Language                    : English
Service kind                : Complete Main
Default                     : No
Forced                      : No




Savasci BL 32 HDTvRip 720p AC3 by TheWelleTy TORK

Genişletmek için Tıkla!
Dün Saat: 20:42 , TheWelleTy Tarafından Yüklendi.
Kaynaklar: 4 / İndirilen: 2 / Boyut: 1.13 GB / Tamamlandı: 10
Torrenti İndir  Torrenti Şikayet Et Torrent Tanımı Tanıtım Videosu
IMDB Puanı: 5.9 5.9/10 Kategori: Aksiyon | Suç
Kategori: TV Kayıtları > Yerli / Dizi
http://www.imdb.com/title/tt6941980/

Savasci BL 32 HDTvRip 720p AC3 by TheWelleTy TORK





Genişlet Kod:
General
Unique ID                   : 191165920420413382712581113658440737815 (0x8FD137907BECE23980F354383F5CE417)
Complete name               : D:\TORK\Savasci.BL.32.HDTvRip.720p.AC3.by.TheWelleTy.TORK.mkv
Format                      : Matroska
Format version              : Version 2
File size                   : 1.13 GiB
Duration                    : 2 h 24 min
Overall bit rate            : 1 124 kb/s
Encoded date                : UTC 2018-02-20 18:40:35
Writing application         : mkvmerge v3.3.0 ('Language') built on Mar 24 2010 14:59:24
Writing library             : libebml v0.8.0 + libmatroska v0.9.0

Video
ID                          : 1
Format                      : AVC
Format/Info                 : Advanced Video Codec
Format profile              : High@L3.1
Format settings             : CABAC / 4 Ref Frames
Format settings, CABAC      : Yes
Format settings, ReFrames   : 4 frames
Codec ID                    : V_MPEG4/ISO/AVC
Duration                    : 2 h 24 min
Bit rate                    : 1 000 kb/s
Width                       : 1 280 pixels
Height                      : 720 pixels
Display aspect ratio        : 16:9
Frame rate mode             : Constant
Frame rate                  : 25.000 FPS
Color space                 : YUV
Chroma subsampling          : 4:2:0
Bit depth                   : 8 bits
Scan type                   : Progressive
Bits/(Pixel*Frame)          : 0.043
Stream size                 : 1 005 MiB (87%)
Writing library             : x264 core 128 r2216 198a7ea
Encoding settings           : cabac=1 / ref=3 / deblock=1:-1:-1 / analyse=0x3:0x113 / me=hex / subme=7 / psy=1 / psy_rd=1.00:0.15 / mixed_ref=1 / me_range=16 / chroma_me=1 / trellis=1 / 8x8dct=1 / cqm=0 / deadzone=21,11 / fast_pskip=1 / chroma_qp_offset=-3 / threads=18 / lookahead_threads=3 / sliced_threads=0 / nr=0 / decimate=1 / interlaced=0 / bluray_compat=0 / constrained_intra=0 / bframes=3 / b_pyramid=2 / b_adapt=1 / b_bias=0 / direct=1 / weightb=1 / open_gop=0 / weightp=2 / keyint=250 / keyint_min=25 / scenecut=40 / intra_refresh=0 / rc_lookahead=40 / rc=abr / mbtree=1 / bitrate=1000 / ratetol=1.0 / qcomp=0.60 / qpmin=0 / qpmax=69 / qpstep=4 / ip_ratio=1.40 / aq=1:1.00
Default                     : No
Forced                      : No

Audio
ID                          : 2
Format                      : AC-3
Format/Info                 : Audio Coding 3
Codec ID                    : A_AC3
Duration                    : 2 h 24 min
Bit rate mode               : Constant
Bit rate                    : 128 kb/s
Channel(s)                  : 2 channels
Channel positions           : Front: L R
Sampling rate               : 48.0 kHz
Frame rate                  : 31.250 FPS (1536 SPF)
Bit depth                   : 16 bits
Compression mode            : Lossy
Stream size                 : 132 MiB (11%)
Language                    : English
Service kind                : Complete Main
Default                     : No
Forced                      : No









NBA - All Star 2018 Team LeBron vs Team Stephen 720p HDTV x264 AC3 TORK

Genişletmek için Tıkla!
Dün Saat: 09:11 , playdevil Tarafından Yüklendi.
Kaynaklar: 8 / İndirilen: 0 / Boyut: 1.58 GB / Tamamlandı: 11
Torrenti İndir  Torrenti Şikayet Et Torrent Tanımı
Kategori: Spor
Kategori: TV Kayıtları > Boxset

NBA - All Star 2018 Team LeBron vs Team Stephen 720p HDTV x264 AC3 TORK





Genişlet Kod:
Format : Matroska
Format version : Version 4 / Version 2
File size : 1.58 GiB
Duration : 1 h 46 min
Overall bit rate : 2 130 kb/s
Encoded date : UTC 2018-02-20 04:31:41
Writing application : mkvmerge v6.1.0 ('Old Devil') built on Mar 2 2013 14:32:37
Writing library : libebml v1.3.0 + libmatroska v1.4.0

Video
ID : 1
Format : AVC
Format/Info : Advanced Video Codec
Format profile : High@L3.1
Format settings : CABAC / 4 Ref Frames
Format settings, CABAC : Yes
Format settings, ReFrames : 4 frames
Codec ID : V_MPEG4/ISO/AVC
Duration : 1 h 46 min
Bit rate : 2 000 kb/s
Width : 1 280 pixels
Height : 720 pixels
Display aspect ratio : 16:9
Frame rate mode : Constant
Frame rate : 25.000 FPS
Color space : YUV
Chroma subsampling : 4:2:0
Bit depth : 8 bits
Scan type : Progressive
Bits/(Pixel*Frame) : 0.087
Stream size : 1.46 GiB (92%)
Writing library : x264 core 152 r2851 ba24899

Default : Yes
Forced : No
Statistics Tags Issue : mkvmerge v17.0.0 ('Be Ur Friend') 64-bit 2018-02-20 02:16:05 / mkvmerge v6.1.0 ('Old Devil') built on Mar 2 2013 14:32:37 2018-02-20 04:31:41
FromStats_BitRate : 2000026
FromStats_Duration : 01:46:19.920000000
FromStats_FrameCount : 159498
FromStats_StreamSize : 1595001118

Audio
ID : 2
Format : AC-3
Format/Info : Audio Coding 3
Codec ID : A_AC3
Duration : 1 h 46 min
Bit rate mode : Constant
Bit rate : 128 kb/s
Channel(s) : 1 channel
Channel positions : Front: C
Sampling rate : 44.1 kHz
Frame rate : 28.711 FPS (1536 SPF)
Bit depth : 16 bits
Compression mode : Lossy
Stream size : 97.4 MiB (6%)
Language : English
Service kind : Complete Main
Default : Yes
Forced : No




Thor Ragnarok 2017 1080p BluRay x264 DUAL TR-ENG TORK

Genişletmek için Tıkla!
Dün Saat: 08:58 , playdevil Tarafından Yüklendi.
Kaynaklar: 37 / İndirilen: 3 / Boyut: 2.84 GB / Tamamlandı: 73
Torrenti İndir  Torrenti Şikayet Et Torrent Tanımı Tanıtım Videosu
IMDB Puanı: 8.0 8.0/10 Kategori: Aksiyon | Fantastik | Komedi | Macera
Kategori: Yabancı Filmler > 1080p
http://www.imdb.com/title/tt3501632/

Thor Ragnarok 2017 1080p BluRay x264 DUAL TR-ENG TORK





AÇIKLAMA

Vizyon tarihi: 27 Ekim 2017 (2s 11dk)

Yönetmen: Taika Waititi

Oyuncular: Chris Hemsworth, Tom Hiddleston, Cate Blanchett

Tür: Aksiyon, Bilimkurgu

Ülke: ABD

Thor serisinin 2017 yılında izleyiciyle buluşacak olan üçüncü filminde, yaklaşmakta olan Norse kıyametine tanık olacağız. Asgard'tan uzakta, evrenin öbür ucunda hapsolmuş olan Thor çıkış yolu bulamamaktadır. Üstelik güçlü çekici de yanında değildir ve Asgard bir yıkımın eşiğindedir. Ragnarok zamanı gelmiştir, eğer gerçekleşirse bütün Asgardlıları yok edecek olan yıkımın sorumlusu ise acımasız Hela'dır. Ancak Asgard'ı kurtarabilmek için öncelikle özgür kalmalı, bunun içinde karşısına eski müttefiki Hulk'ı çıkaran ölümcül bir yarışmayı kazanmalıdır...

Craig Kyle ve Christopher Yost ikilisinin senaryosunu kaleme aldığı filmin başrollerinde bir kez daha Chris Hemsworth ve Tom Hiddleston bulunuyor.



Genişlet Kod:
Format : Matroska
Format version : Version 4 / Version 2
File size : 2.84 GiB
Duration : 2 h 10 min
Overall bit rate : 3 110 kb/s
Encoded date : UTC 2018-02-20 05:51:55
Writing application : mkvmerge v8.5.1 ('Where you lead I will follow') 32bit
Writing library : libebml v1.3.3 + libmatroska v1.4.4

Video
ID : 1
Format : AVC
Format/Info : Advanced Video Codec
Format profile : High@L4.1
Format settings : CABAC / 4 Ref Frames
Format settings, CABAC : Yes
Format settings, ReFrames : 4 frames
Codec ID : V_MPEG4/ISO/AVC
Duration : 2 h 10 min
Bit rate : 2 500 kb/s
Width : 1 920 pixels
Height : 808 pixels
Display aspect ratio : 2.40:1
Frame rate mode : Constant
Frame rate : 23.976 (23976/1000) FPS
Color space : YUV
Chroma subsampling : 4:2:0
Bit depth : 8 bits
Scan type : Progressive
Bits/(Pixel*Frame) : 0.067
Stream size : 2.28 GiB (80%)
Writing library : x264 core 152 r2851M ba24899

Default : Yes
Forced : No

Audio #1
ID : 2
Format : AC-3
Format/Info : Audio Coding 3
Codec ID : A_AC3
Duration : 2 h 10 min
Bit rate mode : Constant
Bit rate : 384 kb/s
Channel(s) : 6 channels
Channel positions : Front: L C R, Side: L R, LFE
Sampling rate : 48.0 kHz
Frame rate : 31.250 FPS (1536 SPF)
Bit depth : 16 bits
Compression mode : Lossy
Stream size : 358 MiB (12%)
Language : Turkish
Service kind : Complete Main
Default : Yes
Forced : No

Audio #2
ID : 3
Format : AAC
Format/Info : Advanced Audio Codec
Format profile : LC
Codec ID : A_AAC-2
Duration : 2 h 10 min
Bit rate : 224 kb/s
Channel(s) : 6 channels
Channel positions : Front: L C R, Side: L R, LFE
Sampling rate : 48.0 kHz
Frame rate : 46.875 FPS (1024 SPF)
Compression mode : Lossy
Stream size : 209 MiB (7%)
Language : English
Default : No
Forced : No

Text
ID : 4
Format : UTF-8
Codec ID : S_TEXT/UTF8
Codec ID/Info : UTF-8 Plain Text
Duration : 2 h 9 min
Bit rate : 53 b/s
Count of elements : 1143
Stream size : 50.3 KiB (0%)
Language : Turkish
Default : No
Forced : No




Thor Ragnarok 2017 720p BluRay x264 DUAL TR-ENG TORK

Genişletmek için Tıkla!
Dün Saat: 08:58 , playdevil Tarafından Yüklendi.
Kaynaklar: 11 / İndirilen: 0 / Boyut: 1.92 GB / Tamamlandı: 20
Torrenti İndir  Torrenti Şikayet Et Torrent Tanımı Tanıtım Videosu
IMDB Puanı: 8.0 8.0/10 Kategori: Aksiyon | Fantastik | Komedi | Macera
Kategori: Yabancı Filmler > 720p
http://www.imdb.com/title/tt3501632/

Thor Ragnarok 2017 720p BluRay x264 DUAL TR-ENG TORK





AÇIKLAMA

Vizyon tarihi: 27 Ekim 2017 (2s 11dk)

Yönetmen: Taika Waititi

Oyuncular: Chris Hemsworth, Tom Hiddleston, Cate Blanchett

Tür: Aksiyon, Bilimkurgu

Ülke: ABD

Thor serisinin 2017 yılında izleyiciyle buluşacak olan üçüncü filminde, yaklaşmakta olan Norse kıyametine tanık olacağız. Asgard'tan uzakta, evrenin öbür ucunda hapsolmuş olan Thor çıkış yolu bulamamaktadır. Üstelik güçlü çekici de yanında değildir ve Asgard bir yıkımın eşiğindedir. Ragnarok zamanı gelmiştir, eğer gerçekleşirse bütün Asgardlıları yok edecek olan yıkımın sorumlusu ise acımasız Hela'dır. Ancak Asgard'ı kurtarabilmek için öncelikle özgür kalmalı, bunun içinde karşısına eski müttefiki Hulk'ı çıkaran ölümcül bir yarışmayı kazanmalıdır...

Craig Kyle ve Christopher Yost ikilisinin senaryosunu kaleme aldığı filmin başrollerinde bir kez daha Chris Hemsworth ve Tom Hiddleston bulunuyor.



Genişlet Kod:
Format : Matroska
Format version : Version 4 / Version 2
File size : 1.92 GiB
Duration : 2 h 10 min
Overall bit rate : 2 110 kb/s
Encoded date : UTC 2018-02-20 05:59:36
Writing application : mkvmerge v8.5.1 ('Where you lead I will follow') 32bit
Writing library : libebml v1.3.3 + libmatroska v1.4.4

Video
ID : 1
Format : AVC
Format/Info : Advanced Video Codec
Format profile : High@L4.1
Format settings : CABAC / 4 Ref Frames
Format settings, CABAC : Yes
Format settings, ReFrames : 4 frames
Codec ID : V_MPEG4/ISO/AVC
Duration : 2 h 10 min
Bit rate : 1 500 kb/s
Width : 1 280 pixels
Height : 536 pixels
Display aspect ratio : 2.40:1
Frame rate mode : Constant
Frame rate : 23.976 (23976/1000) FPS
Color space : YUV
Chroma subsampling : 4:2:0
Bit depth : 8 bits
Scan type : Progressive
Bits/(Pixel*Frame) : 0.091
Stream size : 1.37 GiB (71%)
Writing library : x264 core 152 r2851M ba24899

Default : Yes
Forced : No

Audio #1
ID : 2
Format : AC-3
Format/Info : Audio Coding 3
Codec ID : A_AC3
Duration : 2 h 10 min
Bit rate mode : Constant
Bit rate : 384 kb/s
Channel(s) : 6 channels
Channel positions : Front: L C R, Side: L R, LFE
Sampling rate : 48.0 kHz
Frame rate : 31.250 FPS (1536 SPF)
Bit depth : 16 bits
Compression mode : Lossy
Stream size : 358 MiB (18%)
Language : Turkish
Service kind : Complete Main
Default : Yes
Forced : No

Audio #2
ID : 3
Format : AAC
Format/Info : Advanced Audio Codec
Format profile : LC
Codec ID : A_AAC-2
Duration : 2 h 10 min
Bit rate : 224 kb/s
Channel(s) : 6 channels
Channel positions : Front: L C R, Side: L R, LFE
Sampling rate : 48.0 kHz
Frame rate : 46.875 FPS (1024 SPF)
Compression mode : Lossy
Stream size : 209 MiB (11%)
Language : English
Default : No
Forced : No

Text
ID : 4
Format : UTF-8
Codec ID : S_TEXT/UTF8
Codec ID/Info : UTF-8 Plain Text
Duration : 2 h 9 min
Bit rate : 53 b/s
Count of elements : 1143
Stream size : 50.3 KiB (0%)
Language : Turkish
Default : No
Forced : No




Thor Ragnarok 2017 BDRip x264 TRDUB TORK

Genişletmek için Tıkla!
Dün Saat: 08:58 , playdevil Tarafından Yüklendi.
Kaynaklar: 17 / İndirilen: 1 / Boyut: 1.16 GB / Tamamlandı: 34
Torrenti İndir  Torrenti Şikayet Et Torrent Tanımı Tanıtım Videosu
IMDB Puanı: 8.0 8.0/10 Kategori: Aksiyon | Fantastik | Komedi | Macera
Kategori: Yabancı Filmler > BRRip-HDRip-DVDRip-WebDL
http://www.imdb.com/title/tt3501632/

Thor Ragnarok 2017 BDRip x264 TRDUB TORK





AÇIKLAMA

Vizyon tarihi: 27 Ekim 2017 (2s 11dk)

Yönetmen: Taika Waititi

Oyuncular: Chris Hemsworth, Tom Hiddleston, Cate Blanchett

Tür: Aksiyon, Bilimkurgu

Ülke: ABD

Thor serisinin 2017 yılında izleyiciyle buluşacak olan üçüncü filminde, yaklaşmakta olan Norse kıyametine tanık olacağız. Asgard'tan uzakta, evrenin öbür ucunda hapsolmuş olan Thor çıkış yolu bulamamaktadır. Üstelik güçlü çekici de yanında değildir ve Asgard bir yıkımın eşiğindedir. Ragnarok zamanı gelmiştir, eğer gerçekleşirse bütün Asgardlıları yok edecek olan yıkımın sorumlusu ise acımasız Hela'dır. Ancak Asgard'ı kurtarabilmek için öncelikle özgür kalmalı, bunun içinde karşısına eski müttefiki Hulk'ı çıkaran ölümcül bir yarışmayı kazanmalıdır...

Craig Kyle ve Christopher Yost ikilisinin senaryosunu kaleme aldığı filmin başrollerinde bir kez daha Chris Hemsworth ve Tom Hiddleston bulunuyor.



Genişlet Kod:
Format : Matroska
Format version : Version 4 / Version 2
File size : 1.16 GiB
Duration : 2 h 10 min
Overall bit rate : 1 270 kb/s
Encoded date : UTC 2018-02-20 06:03:28
Writing application : mkvmerge v8.5.1 ('Where you lead I will follow') 32bit
Writing library : libebml v1.3.3 + libmatroska v1.4.4

Video
ID : 1
Format : AVC
Format/Info : Advanced Video Codec
Format profile : High@L3.1
Format settings : CABAC / 5 Ref Frames
Format settings, CABAC : Yes
Format settings, ReFrames : 5 frames
Codec ID : V_MPEG4/ISO/AVC
Duration : 2 h 10 min
Bit rate : 884 kb/s
Width : 720 pixels
Height : 302 pixels
Display aspect ratio : 2.40:1
Frame rate mode : Constant
Frame rate : 23.976 (24000/1001) FPS
Color space : YUV
Chroma subsampling : 4:2:0
Bit depth : 8 bits
Scan type : Progressive
Bits/(Pixel*Frame) : 0.170
Stream size : 826 MiB (70%)
Writing library : x264 core 155 r2901 7d0ff22

Language : English
Default : Yes
Forced : No
Color range : Limited
Matrix coefficients : BT.709

Audio
ID : 2
Format : AC-3
Format/Info : Audio Coding 3
Codec ID : A_AC3
Duration : 2 h 10 min
Bit rate mode : Constant
Bit rate : 384 kb/s
Channel(s) : 6 channels
Channel positions : Front: L C R, Side: L R, LFE
Sampling rate : 48.0 kHz
Frame rate : 31.250 FPS (1536 SPF)
Bit depth : 16 bits
Compression mode : Lossy
Stream size : 358 MiB (30%)
Language : Turkish
Service kind : Complete Main
Default : Yes
Forced : No




FullMetal Alchemist 2017 1080p WeBRip x264 TRDUB TORK

Genişletmek için Tıkla!
Dün Saat: 08:42 , playdevil Tarafından Yüklendi.
Kaynaklar: 4 / İndirilen: 1 / Boyut: 4.42 GB / Tamamlandı: 4
Torrenti İndir  Torrenti Şikayet Et Torrent Tanımı Tanıtım Videosu
IMDB Puanı: 6.2 6.2/10 Kategori: Aksiyon
Kategori: Yabancı Filmler > 1080p
http://www.imdb.com/title/tt5607028/

FullMetal Alchemist 2017 1080p WeBRip x264 TRDUB TORK





AÇIKLAMA

Fullmetal Alchemist, alternatif bir dünyada ve geçmişte geçiyor. Bu dünyada bilimden ziyade Alchemy, yani simya oldukça gelişmiştir ve kendilerine simyacı adı verilen insanlar belirli malzemelerden belirli şeyler yaratabilmektedir. Mesela tahta parçaları kullanılarak bir radyo oluşturulabilir veya aynı şekilde bir radyo odun parçalarına dönüştürülebilmektedir. Fakat simya yapabilmek için belirli kurallar ve yasaklar vardır. Öncelikle bir simyacı simya yapabilmek için simya çemberine ihtiyaç duymaktadır. Herhangi bir kalem veya tebeşir kullanarak genelde yere çizilen çemberin ortasına simya için gerekli malzemeler yerleştirilir. Simyadaki en önemli kural ise eşit takastır. Yani simya gerçekleştirirken elde etmek istediğiniz şeye karşılık simya çemberine onun karşılığını koymanız gerekmektedir. Ayrıca simyada herhangi bir nesne altına dönüştürülememektedir. Son olarak en büyük kural ve yasaklardan birisi de insan simyasıdır. Ölen bir insan asla geri getirilmemelidir, çünkü bir can için eşit değerde takas edilebilecek bir şey yoktur. Eğer bir simyacı ölen bir insanı geri getirmeye çalışırsa ortaya kendi ölümü, hatta daha kötü şeyler çıkabilmektedir. Fullmetal Alchemist’te simyanın bol kullanıldığı bu dünyada geçmektedir ve bizlere Edward ile Alphonse Elric kardeşlerin macerasını anlatmaktadır.



Genişlet Kod:
Format : Matroska
Format version : Version 4 / Version 2
File size : 4.42 GiB
Duration : 2 h 14 min
Overall bit rate mode : Variable
Overall bit rate : 4 708 kb/s
Encoded date : UTC 2018-02-20 05:20:25
Writing application : mkvmerge v8.5.1 ('Where you lead I will follow') 32bit
Writing library : libebml v1.3.3 + libmatroska v1.4.4
Video
ID : 1
Format : AVC
Format/Info : Advanced Video Codec
Format profile : Main@L4
Format settings : CABAC / 3 Ref Frames
Format settings, CABAC : Yes
Format settings, ReFrames : 3 frames
Codec ID : V_MPEG4/ISO/AVC
Duration : 2 h 14 min
Bit rate mode : Variable
Bit rate : 4 640 kb/s
Maximum bit rate : 6 960 kb/s
Width : 1 920 pixels
Height : 1 080 pixels
Display aspect ratio : 16:9
Frame rate mode : Constant
Frame rate : 23.976 (24000/1001) FPS
Color space : YUV
Chroma subsampling : 4:2:0
Bit depth : 8 bits
Scan type : Progressive
Bits/(Pixel*Frame) : 0.093
Stream size : 4.33 GiB (98%)
Writing library : x264 core 148 r2714 2daf636
Default : Yes
Forced : No
Audio
ID : 2
Format : AAC
Format/Info : Advanced Audio Codec
Format profile : HE-AAC / LC
Format settings : Implicit
Codec ID : A_AAC-2
Duration : 2 h 14 min
Bit rate : 96.0 kb/s
Channel(s) : 2 channels
Channel positions : Front: L R
Sampling rate : 48.0 kHz / 24.0 kHz
Frame rate : 23.438 FPS (1024 SPF)
Compression mode : Lossy
Stream size : 91.1 MiB (2%)
Language : Turkish
Default : Yes
Forced : No




FullMetal Alchemist 2017 WeBRip x264 TRDUB TORK

Genişletmek için Tıkla!
Dün Saat: 08:42 , playdevil Tarafından Yüklendi.
Kaynaklar: 13 / İndirilen: 1 / Boyut: 1.16 GB / Tamamlandı: 33
Torrenti İndir  Torrenti Şikayet Et Torrent Tanımı Tanıtım Videosu
IMDB Puanı: 6.8 6.8/10 Kategori: Aksiyon
Kategori: Yabancı Filmler > BRRip-HDRip-DVDRip-WebDL
http://www.imdb.com/title/tt5607028/

FullMetal Alchemist 2017 WeBRip x264 TRDUB TORK





AÇIKLAMA

Fullmetal Alchemist, alternatif bir dünyada ve geçmişte geçiyor. Bu dünyada bilimden ziyade Alchemy, yani simya oldukça gelişmiştir ve kendilerine simyacı adı verilen insanlar belirli malzemelerden belirli şeyler yaratabilmektedir. Mesela tahta parçaları kullanılarak bir radyo oluşturulabilir veya aynı şekilde bir radyo odun parçalarına dönüştürülebilmektedir. Fakat simya yapabilmek için belirli kurallar ve yasaklar vardır. Öncelikle bir simyacı simya yapabilmek için simya çemberine ihtiyaç duymaktadır. Herhangi bir kalem veya tebeşir kullanarak genelde yere çizilen çemberin ortasına simya için gerekli malzemeler yerleştirilir. Simyadaki en önemli kural ise eşit takastır. Yani simya gerçekleştirirken elde etmek istediğiniz şeye karşılık simya çemberine onun karşılığını koymanız gerekmektedir. Ayrıca simyada herhangi bir nesne altına dönüştürülememektedir. Son olarak en büyük kural ve yasaklardan birisi de insan simyasıdır. Ölen bir insan asla geri getirilmemelidir, çünkü bir can için eşit değerde takas edilebilecek bir şey yoktur. Eğer bir simyacı ölen bir insanı geri getirmeye çalışırsa ortaya kendi ölümü, hatta daha kötü şeyler çıkabilmektedir. Fullmetal Alchemist’te simyanın bol kullanıldığı bu dünyada geçmektedir ve bizlere Edward ile Alphonse Elric kardeşlerin macerasını anlatmaktadır.



Genişlet Kod:
Format : Matroska
Format version : Version 4 / Version 2
File size : 1.16 GiB
Duration : 2 h 14 min
Overall bit rate mode : Variable
Overall bit rate : 1 238 kb/s
Encoded date : UTC 2018-02-20 05:25:40
Writing application : mkvmerge v8.5.1 ('Where you lead I will follow') 32bit
Writing library : libebml v1.3.3 + libmatroska v1.4.4

Video
ID : 1
Format : AVC
Format/Info : Advanced Video Codec
Format profile : Main@L3
Format settings : CABAC / 3 Ref Frames
Format settings, CABAC : Yes
Format settings, ReFrames : 3 frames
Codec ID : V_MPEG4/ISO/AVC
Duration : 2 h 14 min
Bit rate mode : Variable
Bit rate : 1 150 kb/s
Maximum bit rate : 1 725 kb/s
Width : 720 pixels
Height : 480 pixels
Display aspect ratio : 16:9
Frame rate mode : Constant
Frame rate : 23.976 (24000/1001) FPS
Color space : YUV
Chroma subsampling : 4:2:0
Bit depth : 8 bits
Scan type : Progressive
Bits/(Pixel*Frame) : 0.139
Stream size : 1.07 GiB (92%)
Writing library : x264 core 148 r2714 2daf636

Default : Yes
Forced : No

Audio
ID : 2
Format : AAC
Format/Info : Advanced Audio Codec
Format profile : HE-AAC / LC
Format settings : Implicit
Codec ID : A_AAC-2
Duration : 2 h 14 min
Bit rate : 96.0 kb/s
Channel(s) : 2 channels
Channel positions : Front: L R
Sampling rate : 48.0 kHz / 24.0 kHz
Frame rate : 23.438 FPS (1024 SPF)
Compression mode : Lossy
Stream size : 91.1 MiB (8%)
Language : Turkish
Default : Yes
Forced : No




Soz BL 34 HDTvRip 720p AC3 by TheWelleTy TORK

Genişletmek için Tıkla!
Pazartesi saat 23:41 de , TheWelleTy Tarafından Yüklendi.
Kaynaklar: 17 / İndirilen: 0 / Boyut: 1.09 GB / Tamamlandı: 39
Torrenti İndir  Torrenti Şikayet Et Torrent Tanımı
Kategori: Aksiyon | Suç
Kategori: TV Kayıtları > Yerli / Dizi

Soz BL 34 HDTvRip 720p AC3 by TheWelleTy TORK





Genişlet Kod:
General
Unique ID                   : 210081423072010844125029887757123812387 (0x9E0C35D931FDB0E8992FC697B7D37C23)
Complete name               : D:\TORK\Soz.BL.34.HDTvRip.720p.AC3.by.TheWelleTy.TORK.mkv
Format                      : Matroska
Format version              : Version 2
File size                   : 1.09 GiB
Duration                    : 2 h 17 min
Overall bit rate            : 1 133 kb/s
Encoded date                : UTC 2018-02-19 21:40:08
Writing application         : mkvmerge v3.3.0 ('Language') built on Mar 24 2010 14:59:24
Writing library             : libebml v0.8.0 + libmatroska v0.9.0

Video
ID                          : 1
Format                      : AVC
Format/Info                 : Advanced Video Codec
Format profile              : High@L3.1
Format settings             : CABAC / 4 Ref Frames
Format settings, CABAC      : Yes
Format settings, ReFrames   : 4 frames
Codec ID                    : V_MPEG4/ISO/AVC
Duration                    : 2 h 17 min
Bit rate                    : 997 kb/s
Width                       : 1 280 pixels
Height                      : 720 pixels
Display aspect ratio        : 16:9
Frame rate mode             : Constant
Frame rate                  : 25.000 FPS
Color space                 : YUV
Chroma subsampling          : 4:2:0
Bit depth                   : 8 bits
Scan type                   : Progressive
Bits/(Pixel*Frame)          : 0.043
Stream size                 : 969 MiB (87%)
Writing library             : x264 core 128 r2216 198a7ea
Encoding settings           : cabac=1 / ref=3 / deblock=1:-1:-1 / analyse=0x3:0x113 / me=hex / subme=7 / psy=1 / psy_rd=1.00:0.15 / mixed_ref=1 / me_range=16 / chroma_me=1 / trellis=1 / 8x8dct=1 / cqm=0 / deadzone=21,11 / fast_pskip=1 / chroma_qp_offset=-3 / threads=18 / lookahead_threads=3 / sliced_threads=0 / nr=0 / decimate=1 / interlaced=0 / bluray_compat=0 / constrained_intra=0 / bframes=3 / b_pyramid=2 / b_adapt=1 / b_bias=0 / direct=1 / weightb=1 / open_gop=0 / weightp=2 / keyint=250 / keyint_min=25 / scenecut=40 / intra_refresh=0 / rc_lookahead=40 / rc=abr / mbtree=1 / bitrate=997 / ratetol=1.0 / qcomp=0.60 / qpmin=0 / qpmax=69 / qpstep=4 / ip_ratio=1.40 / aq=1:1.00
Default                     : No
Forced                      : No

Audio
ID                          : 2
Format                      : AC-3
Format/Info                 : Audio Coding 3
Codec ID                    : A_AC3
Duration                    : 2 h 17 min
Bit rate mode               : Constant
Bit rate                    : 128 kb/s
Channel(s)                  : 2 channels
Channel positions           : Front: L R
Sampling rate               : 48.0 kHz
Frame rate                  : 31.250 FPS (1536 SPF)
Bit depth                   : 16 bits
Compression mode            : Lossy
Stream size                 : 126 MiB (11%)
Language                    : English
Service kind                : Complete Main
Default                     : No
Forced                      : No









Cukur BL 17 HDTvRip 720p AC3 by TheWelleTy TORK

Genişletmek için Tıkla!
Pazartesi saat 23:23 de , TheWelleTy Tarafından Yüklendi.
Kaynaklar: 30 / İndirilen: 0 / Boyut: 1.06 GB / Tamamlandı: 77
Torrenti İndir  Torrenti Şikayet Et Torrent Tanımı Tanıtım Videosu
IMDB Puanı: 8.7 8.7/10 Kategori: Aksiyon
Kategori: TV Kayıtları > Yerli / Dizi
http://www.imdb.com/title/tt7431994/

Cukur BL 17 HDTvRip 720p AC3 by TheWelleTy TORK





Genişlet Kod:
General
Unique ID                   : 203851892437773617475524808832601447717 (0x995C724664437DAC87D0C1BB9D5E5D25)
Complete name               : D:\TORK\Cukur.BL.17.HDTvRip.720p.AC3.by.TheWelleTy.TORK.mkv
Format                      : Matroska
Format version              : Version 2
File size                   : 1.06 GiB
Duration                    : 2 h 14 min
Overall bit rate            : 1 123 kb/s
Encoded date                : UTC 2018-02-19 21:22:08
Writing application         : mkvmerge v3.3.0 ('Language') built on Mar 24 2010 14:59:24
Writing library             : libebml v0.8.0 + libmatroska v0.9.0

Video
ID                          : 1
Format                      : AVC
Format/Info                 : Advanced Video Codec
Format profile              : High@L3.1
Format settings             : CABAC / 4 Ref Frames
Format settings, CABAC      : Yes
Format settings, ReFrames   : 4 frames
Codec ID                    : V_MPEG4/ISO/AVC
Duration                    : 2 h 14 min
Bit rate                    : 1 001 kb/s
Width                       : 1 280 pixels
Height                      : 720 pixels
Display aspect ratio        : 16:9
Frame rate mode             : Constant
Frame rate                  : 25.000 FPS
Color space                 : YUV
Chroma subsampling          : 4:2:0
Bit depth                   : 8 bits
Scan type                   : Progressive
Bits/(Pixel*Frame)          : 0.043
Stream size                 : 938 MiB (87%)
Writing library             : x264 core 128 r2216 198a7ea
Encoding settings           : cabac=1 / ref=3 / deblock=1:-1:-1 / analyse=0x3:0x113 / me=hex / subme=7 / psy=1 / psy_rd=1.00:0.15 / mixed_ref=1 / me_range=16 / chroma_me=1 / trellis=1 / 8x8dct=1 / cqm=0 / deadzone=21,11 / fast_pskip=1 / chroma_qp_offset=-3 / threads=18 / lookahead_threads=3 / sliced_threads=0 / nr=0 / decimate=1 / interlaced=0 / bluray_compat=0 / constrained_intra=0 / bframes=3 / b_pyramid=2 / b_adapt=1 / b_bias=0 / direct=1 / weightb=1 / open_gop=0 / weightp=2 / keyint=250 / keyint_min=25 / scenecut=40 / intra_refresh=0 / rc_lookahead=40 / rc=abr / mbtree=1 / bitrate=1001 / ratetol=1.0 / qcomp=0.60 / qpmin=0 / qpmax=69 / qpstep=4 / ip_ratio=1.40 / aq=1:1.00
Default                     : No
Forced                      : No

Audio
ID                          : 2
Format                      : AC-3
Format/Info                 : Audio Coding 3
Codec ID                    : A_AC3
Duration                    : 2 h 14 min
Bit rate mode               : Constant
Bit rate                    : 128 kb/s
Channel(s)                  : 2 channels
Channel positions           : Front: L R
Sampling rate               : 48.0 kHz
Frame rate                  : 31.250 FPS (1536 SPF)
Bit depth                   : 16 bits
Compression mode            : Lossy
Stream size                 : 123 MiB (11%)
Language                    : English
Service kind                : Complete Main
Default                     : No
Forced                      : No









TolgShow 17.02.2018 HDTvRip 720p AC3 by TheWelleTy TORK

Genişletmek için Tıkla!
Pazartesi saat 21:49 de , TheWelleTy Tarafından Yüklendi.
Kaynaklar: 12 / İndirilen: 0 / Boyut: 641.38 MB / Tamamlandı: 28
Torrenti İndir  Torrenti Şikayet Et Torrent Tanımı Tanıtım Videosu
IMDB Puanı: 8.2 8.2/10 Kategori: Aile | Komedi
Kategori: TV Kayıtları > TV Programları
http://www.imdb.com/title/tt7827112/

TolgShow 17.02.2018 HDTvRip 720p AC3 by TheWelleTy TORK





Genişlet Kod:
General
Unique ID                   : 214304877693709469752210550987611175809 (0xA1399E3CF8C846A59A0EE3FAB58BFB81)
Complete name               : D:\TORK\TolgShow.17.02.2018.HDTvRip.720p.AC3.by.TheWelleTy.TORK.mkv
Format                      : Matroska
Format version              : Version 2
File size                   : 641 MiB
Duration                    : 1 h 19 min
Overall bit rate            : 1 132 kb/s
Encoded date                : UTC 2018-02-19 19:47:24
Writing application         : mkvmerge v3.3.0 ('Language') built on Mar 24 2010 14:59:24
Writing library             : libebml v0.8.0 + libmatroska v0.9.0

Video
ID                          : 1
Format                      : AVC
Format/Info                 : Advanced Video Codec
Format profile              : High@L3.1
Format settings             : CABAC / 4 Ref Frames
Format settings, CABAC      : Yes
Format settings, ReFrames   : 4 frames
Codec ID                    : V_MPEG4/ISO/AVC
Duration                    : 1 h 19 min
Bit rate                    : 1 000 kb/s
Width                       : 1 280 pixels
Height                      : 720 pixels
Display aspect ratio        : 16:9
Frame rate mode             : Constant
Frame rate                  : 25.000 FPS
Color space                 : YUV
Chroma subsampling          : 4:2:0
Bit depth                   : 8 bits
Scan type                   : Progressive
Bits/(Pixel*Frame)          : 0.043
Stream size                 : 556 MiB (87%)
Writing library             : x264 core 128 r2216 198a7ea
Encoding settings           : cabac=1 / ref=3 / deblock=1:-1:-1 / analyse=0x3:0x113 / me=hex / subme=7 / psy=1 / psy_rd=1.00:0.15 / mixed_ref=1 / me_range=16 / chroma_me=1 / trellis=1 / 8x8dct=1 / cqm=0 / deadzone=21,11 / fast_pskip=1 / chroma_qp_offset=-3 / threads=18 / lookahead_threads=3 / sliced_threads=0 / nr=0 / decimate=1 / interlaced=0 / bluray_compat=0 / constrained_intra=0 / bframes=3 / b_pyramid=2 / b_adapt=1 / b_bias=0 / direct=1 / weightb=1 / open_gop=0 / weightp=2 / keyint=250 / keyint_min=25 / scenecut=40 / intra_refresh=0 / rc_lookahead=40 / rc=abr / mbtree=1 / bitrate=1000 / ratetol=1.0 / qcomp=0.60 / qpmin=0 / qpmax=69 / qpstep=4 / ip_ratio=1.40 / aq=1:1.00
Default                     : No
Forced                      : No

Audio
ID                          : 2
Format                      : AC-3
Format/Info                 : Audio Coding 3
Codec ID                    : A_AC3
Duration                    : 1 h 19 min
Bit rate mode               : Constant
Bit rate                    : 128 kb/s
Channel(s)                  : 2 channels
Channel positions           : Front: L R
Sampling rate               : 48.0 kHz
Frame rate                  : 31.250 FPS (1536 SPF)
Bit depth                   : 16 bits
Compression mode            : Lossy
Stream size                 : 72.5 MiB (11%)
Language                    : English
Service kind                : Complete Main
Default                     : No
Forced                      : No









TRT Gunduz Hayalet Binicileri-The Shadow Riders 1982 HDTvRip 720p AC3 by TheWelleTy TORK

Genişletmek için Tıkla!
Pazartesi saat 21:45 de , TheWelleTy Tarafından Yüklendi.
Kaynaklar: 5 / İndirilen: 0 / Boyut: 736.56 MB / Tamamlandı: 10
Torrenti İndir  Torrenti Şikayet Et Torrent Tanımı Tanıtım Videosu
IMDB Puanı: 6.8 6.8/10 Kategori: Western
Kategori: Yabancı Filmler > 720p
http://www.imdb.com/title/tt0084666/

TRT Gunduz Hayalet Binicileri-The Shadow Riders 1982 HDTvRip 720p AC3 by TheWelleTy TORK





Genişlet Kod:
General
Unique ID : 253364844203775471971720794072712386059 (0xBE9C4B4598A96B15BAF291DDC3E6960B)
Complete name : D:\TORK\TRT.Gunduz.Sinemasi.Hayalet.Biniciler.1982.HDTvRip.720p.AC3.by.TheWelleTy.TORK.mkv
Format : Matroska
Format version : Version 2
File size : 737 MiB
Duration : 1 h 31 min
Overall bit rate : 1 130 kb/s
Encoded date : UTC 2018-02-19 19:39:21
Writing application : mkvmerge v3.3.0 ('Language') built on Mar 24 2010 14:59:24
Writing library : libebml v0.8.0 + libmatroska v0.9.0
Video
ID : 1
Format : AVC
Format/Info : Advanced Video Codec
Format profile : High@L3.1
Format settings : CABAC / 4 Ref Frames
Format settings, CABAC : Yes
Format settings, ReFrames : 4 frames
Codec ID : V_MPEG4/ISO/AVC
Duration : 1 h 31 min
Bit rate : 999 kb/s
Width : 1 280 pixels
Height : 720 pixels
Display aspect ratio : 16:9
Frame rate mode : Constant
Frame rate : 25.000 FPS
Color space : YUV
Chroma subsampling : 4:2:0
Bit depth : 8 bits
Scan type : Progressive
Bits/(Pixel*Frame) : 0.043
Stream size : 638 MiB (87%)
Writing library : x264 core 128 r2216 198a7ea
Encoding settings : cabac=1 / ref=3 / deblock=1:-1:-1 / analyse=0x3:0x113 / me=hex / subme=7 / psy=1 / psy_rd=1.00:0.15 / mixed_ref=1 / me_range=16 / chroma_me=1 / trellis=1 / 8x8dct=1 / cqm=0 / deadzone=21,11 / fast_pskip=1 / chroma_qp_offset=-3 / threads=18 / lookahead_threads=3 / sliced_threads=0 / nr=0 / decimate=1 / interlaced=0 / bluray_compat=0 / constrained_intra=0 / bframes=3 / b_pyramid=2 / b_adapt=1 / b_bias=0 / direct=1 / weightb=1 / open_gop=0 / weightp=2 / keyint=250 / keyint_min=25 / scenecut=40 / intra_refresh=0 / rc_lookahead=40 / rc=abr / mbtree=1 / bitrate=999 / ratetol=1.0 / qcomp=0.60 / qpmin=0 / qpmax=69 / qpstep=4 / ip_ratio=1.40 / aq=1:1.00
Default : No
Forced : No
Audio
ID : 2
Format : AC-3
Format/Info : Audio Coding 3
Codec ID : A_AC3
Duration : 1 h 31 min
Bit rate mode : Constant
Bit rate : 128 kb/s
Channel(s) : 2 channels
Channel positions : Front: L R
Sampling rate : 48.0 kHz
Frame rate : 31.250 FPS (1536 SPF)
Bit depth : 16 bits
Compression mode : Lossy
Stream size : 83.5 MiB (11%)
Language : English
Service kind : Complete Main
Default : No
Forced : No



Survivor 2018 Unluler Gonulluler 18.02.2018 HDTvRip 720p AC3 by TheWelleTy TORK

Genişletmek için Tıkla!
Pazartesi saat 21:34 de , TheWelleTy Tarafından Yüklendi.
Kaynaklar: 7 / İndirilen: 0 / Boyut: 1.11 GB / Tamamlandı: 16
Torrenti İndir  Torrenti Şikayet Et Torrent Tanımı
Kategori: Aksiyon
Kategori: TV Kayıtları > TV Programları

Survivor 2018 Unluler Gonulluler 18.02.2018 HDTvRip 720p AC3 by TheWelleTy TORK





Genişlet Kod:
General
Unique ID                   : 198968964965755059501996281228274397104 (0x95B0075D05372C58A3DB0B61E4436FB0)
Complete name               : D:\TORK\Survivor.2018.Unluler.Gonulluler.18.02.2018.HDTvRip.720p.AC3.by.TheWelleTy.TORK.mkv
Format                      : Matroska
Format version              : Version 2
File size                   : 1.11 GiB
Duration                    : 2 h 21 min
Overall bit rate            : 1 121 kb/s
Encoded date                : UTC 2018-02-19 19:32:02
Writing application         : mkvmerge v3.3.0 ('Language') built on Mar 24 2010 14:59:24
Writing library             : libebml v0.8.0 + libmatroska v0.9.0

Video
ID                          : 1
Format                      : AVC
Format/Info                 : Advanced Video Codec
Format profile              : High@L3.1
Format settings             : CABAC / 4 Ref Frames
Format settings, CABAC      : Yes
Format settings, ReFrames   : 4 frames
Codec ID                    : V_MPEG4/ISO/AVC
Duration                    : 2 h 21 min
Bit rate                    : 1 000 kb/s
Width                       : 1 280 pixels
Height                      : 720 pixels
Display aspect ratio        : 16:9
Frame rate mode             : Constant
Frame rate                  : 25.000 FPS
Color space                 : YUV
Chroma subsampling          : 4:2:0
Bit depth                   : 8 bits
Scan type                   : Progressive
Bits/(Pixel*Frame)          : 0.043
Stream size                 : 980 MiB (87%)
Writing library             : x264 core 128 r2216 198a7ea
Encoding settings           : cabac=1 / ref=3 / deblock=1:-1:-1 / analyse=0x3:0x113 / me=hex / subme=7 / psy=1 / psy_rd=1.00:0.15 / mixed_ref=1 / me_range=16 / chroma_me=1 / trellis=1 / 8x8dct=1 / cqm=0 / deadzone=21,11 / fast_pskip=1 / chroma_qp_offset=-3 / threads=18 / lookahead_threads=3 / sliced_threads=0 / nr=0 / decimate=1 / interlaced=0 / bluray_compat=0 / constrained_intra=0 / bframes=3 / b_pyramid=2 / b_adapt=1 / b_bias=0 / direct=1 / weightb=1 / open_gop=0 / weightp=2 / keyint=250 / keyint_min=25 / scenecut=40 / intra_refresh=0 / rc_lookahead=40 / rc=abr / mbtree=1 / bitrate=1000 / ratetol=1.0 / qcomp=0.60 / qpmin=0 / qpmax=69 / qpstep=4 / ip_ratio=1.40 / aq=1:1.00
Default                     : No
Forced                      : No

Audio
ID                          : 2
Format                      : AC-3
Format/Info                 : Audio Coding 3
Codec ID                    : A_AC3
Duration                    : 2 h 21 min
Bit rate mode               : Constant
Bit rate                    : 128 kb/s
Channel(s)                  : 2 channels
Channel positions           : Front: L R
Sampling rate               : 48.0 kHz
Frame rate                  : 31.250 FPS (1536 SPF)
Bit depth                   : 16 bits
Compression mode            : Lossy
Stream size                 : 129 MiB (11%)
Language                    : English
Service kind                : Complete Main
Default                     : No
Forced                      : No









Survivor 2018 Unluler Gonulluler 17.02.2018 HDTvRip 720p AC3 by TheWelleTy TORK

Genişletmek için Tıkla!
Pazartesi saat 21:29 de , TheWelleTy Tarafından Yüklendi.
Kaynaklar: 5 / İndirilen: 0 / Boyut: 1 GB / Tamamlandı: 15
Torrenti İndir  Torrenti Şikayet Et Torrent Tanımı
Kategori: Aksiyon
Kategori: TV Kayıtları > TV Programları

Survivor 2018 Unluler Gonulluler 17.02.2018 HDTvRip 720p AC3 by TheWelleTy TORK





Genişlet Kod:
General
Unique ID                   : 177474037922337671852596655804581317273 (0x858441A3569A89D5A021D472646E8A99)
Complete name               : D:\TORK\Survivor.2018.Unluler.Gonulluler.17.02.2018.HDTvRip.720p.AC3.by.TheWelleTy.TORK.mkv
Format                      : Matroska
Format version              : Version 2
File size                   : 1.00 GiB
Duration                    : 2 h 7 min
Overall bit rate            : 1 125 kb/s
Encoded date                : UTC 2018-02-19 19:26:59
Writing application         : mkvmerge v3.3.0 ('Language') built on Mar 24 2010 14:59:24
Writing library             : libebml v0.8.0 + libmatroska v0.9.0

Video
ID                          : 1
Format                      : AVC
Format/Info                 : Advanced Video Codec
Format profile              : High@L3.1
Format settings             : CABAC / 4 Ref Frames
Format settings, CABAC      : Yes
Format settings, ReFrames   : 4 frames
Codec ID                    : V_MPEG4/ISO/AVC
Duration                    : 2 h 7 min
Bit rate                    : 1 000 kb/s
Width                       : 1 280 pixels
Height                      : 720 pixels
Display aspect ratio        : 16:9
Frame rate mode             : Constant
Frame rate                  : 25.000 FPS
Color space                 : YUV
Chroma subsampling          : 4:2:0
Bit depth                   : 8 bits
Scan type                   : Progressive
Bits/(Pixel*Frame)          : 0.043
Stream size                 : 889 MiB (87%)
Writing library             : x264 core 128 r2216 198a7ea
Encoding settings           : cabac=1 / ref=3 / deblock=1:-1:-1 / analyse=0x3:0x113 / me=hex / subme=7 / psy=1 / psy_rd=1.00:0.15 / mixed_ref=1 / me_range=16 / chroma_me=1 / trellis=1 / 8x8dct=1 / cqm=0 / deadzone=21,11 / fast_pskip=1 / chroma_qp_offset=-3 / threads=18 / lookahead_threads=3 / sliced_threads=0 / nr=0 / decimate=1 / interlaced=0 / bluray_compat=0 / constrained_intra=0 / bframes=3 / b_pyramid=2 / b_adapt=1 / b_bias=0 / direct=1 / weightb=1 / open_gop=0 / weightp=2 / keyint=250 / keyint_min=25 / scenecut=40 / intra_refresh=0 / rc_lookahead=40 / rc=abr / mbtree=1 / bitrate=1000 / ratetol=1.0 / qcomp=0.60 / qpmin=0 / qpmax=69 / qpstep=4 / ip_ratio=1.40 / aq=1:1.00
Default                     : No
Forced                      : No

Audio
ID                          : 2
Format                      : AC-3
Format/Info                 : Audio Coding 3
Codec ID                    : A_AC3
Duration                    : 2 h 7 min
Bit rate mode               : Constant
Bit rate                    : 128 kb/s
Channel(s)                  : 2 channels
Channel positions           : Front: L R
Sampling rate               : 48.0 kHz
Frame rate                  : 31.250 FPS (1536 SPF)
Bit depth                   : 16 bits
Compression mode            : Lossy
Stream size                 : 117 MiB (11%)
Language                    : English
Service kind                : Complete Main
Default                     : No
Forced                      : No









web counter